Вызов Последний ученик / Kampfansage - Der letzte Schueler (Йоханнес Ягер / Johannes Jaeger) [2005, Германия, Боевик, Фантастика, Постапокалипсис, BDRip-720p] (ПМ)

Reply to topic
 
Author Message

AlexNT60 ®

Gender: Male

Longevity: 7 years 8 months

Posts: 137

Location: СПб

Post 01-Feb-2016 21:24

[Quote]

Вызов: Последний ученик / Kampfansage - Der letzte Schueler
Страна: Германия, Action Concept Film- und Stuntproduktion
Жанр: Боевик, Фантастика, Постапокалипсис
Продолжительность: 01:37:18
Год выпуска: 2005
Перевод: Профессиональный (многоголосый)
Режиссер: Йоханнес Ягер / Johannes Jaeger
В ролях:
Матис Ландвер
Фолькрам Чише
Кристиан Монц
Цора Хольт
Синта Вайсц
Игаль Гляйм
Рон Матц
Эстер Швейнс
Бела Б. Фельзенхаймер
Вольфганг Штегеман
Описание: После серии природных катастроф и глобального экономического коллапса мир превратился в царство беззакония. Разрушенные города превратились в руины, по которым бродят сироты и нищие, терроризируемые бандами. Один из главарей такой банды, Боско, убил хранителя священной книги восточных единоборств Мастера Тача. Его верный ученик Джонас найдёт злодея и отомстит.
Качество видео: BDRip-720p
Формат видео: MKV
Видео: x264, 4437 кбит/с, 1280x720, 23.976 к/с
Аудио: Русский MVO (AC3, 2 ch, 192 Кбит/с)
Аудио 2: Английский (AC3, 2 ch, 192 Кбит/с)
Работа над релизом:




Пример русскогоперевода
[youtube][/youtube]

Дополнительно

Also Known As (AKA)
Bulgaria (Bulgarian title) Предизвикателството: Последният ученик
Spain Desafío - El último aprendiz
France Challenge
UK (TV title) The Challenge
Greece (DVD title) Evropi 2040: O teleftaios mathitis
Hungary Hadüzenet
Italy The Challenge - La Sfida
Italy (DVD title) The Challenge - La sfida
Portugal Challenge - O Confronto
бюджет €300 000
Производство 10 декабря 2003 — 15 января 2004
Формат изображения: 1.85 : 1
Формат копии: 35 mm
Формат съёмок: Video
Изображение: цветное
Язык: немецкий

Знаете ли вы, что...

Отзывы

Рецензия

MediaInfo

General
Unique ID : 194843856116695422752490438051376080907 (0x92958FCB68521BA0B944D6C5151B280B)
Complete name : F:\Torrent\Kampfansage.Der.letzte.Schueler.2005.720p.BDRip.x264.mkv
Format : Matroska
Format version : Version 4 / Version 2
File size : 3.28 GiB
Duration : 1h 37mn
Overall bit rate : 4 823 Kbps
Encoded date : UTC 2016-01-21 19:32:15
Writing application : mkvmerge v8.8.0 ('Wind at my back') 64bit
Writing library : libebml v1.3.3 + libmatroska v1.4.4
DURATION : 01:37:18.464000000
NUMBER_OF_FRAMES : 182452
NUMBER_OF_BYTES : 140123136
_STATISTICS_WRITING_APP : mkvmerge v8.8.0 ('Wind at my back') 64bit
_STATISTICS_WRITING_DATE_UTC : 2016-01-21 19:32:15
_STATISTICS_TAGS : BPS DURATION NUMBER_OF_FRAMES NUMBER_OF_BYTES
Video
ID : 1
Format : AVC
Format/Info : Advanced Video Codec
Format profile : High@L4.1
Format settings, CABAC : Yes
Format settings, ReFrames : 5 frames
Codec ID : V_MPEG4/ISO/AVC
Duration : 1h 37mn
Bit rate : 4 437 Kbps
Width : 1 264 pixels
Height : 600 pixels
Display aspect ratio : 2.107
Frame rate mode : Constant
Frame rate : 50.000 fps
Color space : YUV
Chroma subsampling : 4:2:0
Bit depth : 8 bits
Scan type : Progressive
Bits/(Pixel*Frame) : 0.117
Stream size : 2.95 GiB (90%)
Writing library : x264 core 107 r1772 c9dad9e
Encoding settings : cabac=1 / ref=5 / deblock=1:0:0 / analyse=0x3:0x133 / me=umh / subme=7 / psy=1 / psy_rd=1.00:0.00 / mixed_ref=1 / me_range=16 / chroma_me=1 / trellis=1 / 8x8dct=1 / cqm=0 / deadzone=21,11 / fast_pskip=0 / chroma_qp_offset=-2 / threads=12 / sliced_threads=0 / nr=0 / decimate=1 / interlaced=0 / constrained_intra=0 / bframes=3 / b_pyramid=2 / b_adapt=1 / b_bias=0 / direct=1 / weightb=1 / open_gop=0 / weightp=2 / keyint=250 / keyint_min=25 / scenecut=40 / intra_refresh=0 / rc_lookahead=40 / rc=2pass / mbtree=1 / bitrate=4437 / ratetol=1.0 / qcomp=0.60 / qpmin=10 / qpmax=51 / qpstep=4 / cplxblur=20.0 / qblur=0.5 / ip_ratio=1.40 / aq=1:1.00
Language : English
Default : No
Forced : No
DURATION : 01:37:18.480000000
NUMBER_OF_FRAMES : 291924
NUMBER_OF_BYTES : 3236725639
_STATISTICS_WRITING_APP : mkvmerge v8.8.0 ('Wind at my back') 64bit
_STATISTICS_WRITING_DATE_UTC : 2016-01-21 19:32:15
_STATISTICS_TAGS : BPS DURATION NUMBER_OF_FRAMES NUMBER_OF_BYTES
Audio #1
ID : 2
Format : AC-3
Format/Info : Audio Coding 3
Mode extension : CM (complete main)
Format settings, Endianness : Big
Codec ID : A_AC3
Duration : 1h 37mn
Bit rate mode : Constant
Bit rate : 192 Kbps
Channel(s) : 2 channels
Channel positions : Front: L R
Sampling rate : 48.0 KHz
Bit depth : 16 bits
Compression mode : Lossy
Stream size : 134 MiB (4%)
Title : MVO
Language : Russian
Default : Yes
Forced : No
Audio #2
ID : 3
Format : AC-3
Format/Info : Audio Coding 3
Mode extension : CM (complete main)
Format settings, Endianness : Big
Codec ID : A_AC3
Duration : 1h 37mn
Bit rate mode : Constant
Bit rate : 192 Kbps
Channel(s) : 2 channels
Channel positions : Front: L R
Sampling rate : 48.0 KHz
Bit depth : 16 bits
Compression mode : Lossy
Stream size : 134 MiB (4%)
Language : English
Default : No
Forced : No

Скриншот c названием фильма

Скриншоты




Скринлист

cd Рип дополнительно залит на ОБЛАКО cd2
[Profile] [PM]

Guest

Gender: Unknown

Post 02-Feb-2016 01:43 (after 4 hours)

[Quote]

Спасибо! Надо засмотреть...
 
Display posts:    
Reply to topic

Current time is: 29-Oct 10:51

All times are UTC + 3



You cannot post new topics in this forum
You cannot reply to topics in this forum
You cannot edit your posts in this forum
You cannot delete your posts in this forum
You cannot vote in polls in this forum
You cannot attach files in this forum
You cannot download files in this forum