Прототип / Прототип X29A / Prototype / Prototype X29A (Филлип Джей Рот / Phillip J. Roth) [1992, США, Боевик, Фантастика, Постапокалипсис, BDRip-720p] ПМ (Варус-видео), АО (А.Гаврилов)

Reply to topic
 
Author Message

AlexNT60 ®

Gender: Male

Longevity: 7 years 3 months

Posts: 136

Location: СПб

Post 01-Feb-2016 11:57

[Quote]

Прототип / Прототип X29A / Prototype / Prototype X29A
Страна: США
Жанр: Боевик, Фантастика, Постапокалипсис
Год выпуска: 1992
Продолжительность: 01:37:51
Перевод 1: ПМ Варус-видео с VHS
Перевод 2: Авторский (одноголосый) А.Гаврилов
Режиссер: Филлип Джей Рот / Phillip J. Roth
В ролях: Лэйн Ленхарт
Роберт Тоссберг
Бренда Суонсон
Пол Кулдж
Митчелл Кокс
Себастьян Скандуцци
Харольд Кэннон
Зак Несис
Вун Янг Парк
Билл Баршдорф
Описание: Лос-Анджелес, 2057 год. Люди создали чересчур сообразительных кибернетически измененных существ под названием ОМЕГИ, которые начали так изменять свою программу, что время это назвали временем безумных разумов. Чтобы покончить со столь неудачным экспериментом, были созданы полностью кибернетические существа. Их назвали ПРОТОТИПЫ. Задача у них была одна — полностью уничтожить ОМЕГ..
Качество видео: BDRip-720p
Формат видео: MKV
Видео: x264, 5600 кбит/с, 1280x720, 23.976 к/с
Аудио 1: Русский ПМ (Варус-видео) (AC3, 2 ch, 192 Кбит/с)
Аудио 2: Русский АО (Гаврилов) (AC3, 2 ch, 192 Кбит/с)
Аудио 3: Английский (AC3, 2 ch, 192 Кбит/с)
Работа над релизом:
Синхронизация русской ПМ дорожки - kosmoaelita
За дорогу ПМ Варус Видео спасибо Kino-profan.



MediaInfo

Общее
Уникальный идентификатор : 182873132291010590454737880801775221522 (0x8994158AE0010165B512F916F67C7B12)
Полное имя : F:\Prototype X29A 1992.x264.BDRip.720p.2xRus.kosmoaelita.mkv
Формат : Matroska
Версия формата : Version 4 / Version 2
Размер файла : 4,24 Гбайт
Продолжительность : 1 ч. 37 м.
Общий поток : 6203 Кбит/сек
Название фильма : Prototype X29A (1992) kosmoaelita
Дата кодирования : UTC 2016-12-04 21:52:37
Программа кодирования : mkvmerge v6.6.0 ('The Edge Of The In Between') built on Dec 1 2013 17:55:00
Библиотека кодирования : libebml v1.3.0 + libmatroska v1.4.1
Attachments : poster Prototype, 1992.jpg
Видео
Идентификатор : 1
Формат : AVC
Формат/Информация : Advanced Video Codec
Профиль формата : High@L4
Параметр CABAC формата : Да
Параметр ReFrames формата : 8 кадров
Идентификатор кодека : V_MPEG4/ISO/AVC
Продолжительность : 1 ч. 37 м.
Битрейт : 5600 Кбит/сек
Ширина : 1280 пикселей
Высота : 720 пикселей
Соотношение сторон : 16:9
Режим частоты кадров : Постоянный
Частота кадров : 23,976 (24000/1001) кадра/сек
Цветовое пространство : YUV
Субдискретизация насыщенности : 4:2:0
Битовая глубина : 8 бит
Тип развёртки : Прогрессивная
Бит/(Пиксели*Кадры) : 0.253
Размер потока : 3,76 Гбайт (89%)
Заголовок : kosmoaelita
Библиотека кодирования : x264 core 146 r2538M 121396c
Настройки программы : cabac=1 / ref=8 / deblock=1:0:0 / analyse=0x3:0x133 / me=umh / subme=9 / psy=1 / psy_rd=1.00:0.00 / mixed_ref=1 / me_range=16 / chroma_me=1 / trellis=2 / 8x8dct=1 / cqm=0 / deadzone=21,11 / fast_pskip=1 / chroma_qp_offset=-2 / threads=9 / lookahead_threads=1 / sliced_threads=0 / nr=0 / decimate=1 / interlaced=0 / bluray_compat=0 / constrained_intra=0 / bframes=3 / b_pyramid=2 / b_adapt=2 / b_bias=0 / direct=3 / weightb=1 / open_gop=0 / weightp=2 / keyint=250 / keyint_min=23 / scenecut=40 / intra_refresh=0 / rc_lookahead=60 / rc=abr / mbtree=1 / bitrate=5600 / ratetol=1.0 / qcomp=0.60 / qpmin=0 / qpmax=69 / qpstep=4 / ip_ratio=1.40 / aq=1:1.00
Default : Да
Forced : Нет
Аудио #1
Идентификатор : 2
Формат : AC-3
Формат/Информация : Audio Coding 3
Расширение режима : CM (complete main)
Параметр Endianness формата : Big
Идентификатор кодека : A_AC3
Продолжительность : 1 ч. 37 м.
Вид битрейта : Постоянный
Битрейт : 192 Кбит/сек
Каналы : 2 канала
Расположение каналов : Front: L R
Частота : 48,0 КГц
Частота кадров : 31,250 кадров/сек (1536 spf)
Метод сжатия : С потерями
Размер потока : 134 Мбайт (3%)
Заголовок : Русский ПМ (Варус Видео) с VHS
Язык : Russian
Default : Да
Forced : Нет
Аудио #2
Идентификатор : 3
Формат : AC-3
Формат/Информация : Audio Coding 3
Расширение режима : CM (complete main)
Параметр Endianness формата : Big
Идентификатор кодека : A_AC3
Продолжительность : 1 ч. 37 м.
Вид битрейта : Постоянный
Битрейт : 192 Кбит/сек
Каналы : 2 канала
Расположение каналов : Front: L R
Частота : 48,0 КГц
Частота кадров : 31,250 кадров/сек (1536 spf)
Метод сжатия : С потерями
Размер потока : 134 Мбайт (3%)
Заголовок : Русский АО (А.Гаврилов)
Язык : Russian
Default : Нет
Forced : Нет
Аудио #3
Идентификатор : 4
Формат : AC-3
Формат/Информация : Audio Coding 3
Расширение режима : CM (complete main)
Параметр Endianness формата : Big
Идентификатор кодека : A_AC3
Продолжительность : 1 ч. 37 м.
Вид битрейта : Постоянный
Битрейт : 192 Кбит/сек
Каналы : 2 канала
Расположение каналов : Front: L R
Частота : 48,0 КГц
Частота кадров : 31,250 кадров/сек (1536 spf)
Метод сжатия : С потерями
Размер потока : 134 Мбайт (3%)
Язык : English
Default : Нет
Forced : Нет
Меню
00:00:00.000 : :Глава 01
00:11:03.000 : :Глава 02
00:23:23.000 : :Глава 03
00:33:32.150 : :Глава 04
00:47:52.000 : :Глава 05
00:58:38.000 : :Глава 06
01:12:00.150 : :Глава 07
01:26:42.150 : :Глава 08
01:34:28.000 : :Глава 09

Скриншот c названием фильма

Скриншоты




Скринлист

cd Рип дополнительно залит на ОБЛАКО cd2
[Profile] [PM]

Трамвай-фильм

Gender: Male

Longevity: 5 years 9 months

Posts: 1833

Location: Россия

Post 01-Feb-2016 21:27 (after 9 hours)

[Quote]

У него кажись продолжение есть, называется "Апекс"
[Profile] [PM]

AlexNT60 ®

Gender: Male

Longevity: 7 years 3 months

Posts: 136

Location: СПб

Post 01-Feb-2016 21:37 (after 9 minutes)

[Quote]

13085У него кажись продолжение есть, называется "Апекс"
Не. Ни сюжетно, ни смыслово они не связаны. Режиссер один.
[Profile] [PM]

Трамвай-фильм

Gender: Male

Longevity: 5 years 9 months

Posts: 1833

Location: Россия

Post 02-Feb-2016 18:25 (after 20 hours)

[Quote]

13086
13085У него кажись продолжение есть, называется "Апекс"
Не. Ни сюжетно, ни смыслово они не связаны. Режиссер один.
Я давно смотрел уже почти не помню. Там вроде миры одинаковые были, помню какие искривления во времени и т.п.
[Profile] [PM]

admin

Gender: Male

Longevity: 7 years 8 months

Posts: 4799

Post 02-Feb-2016 19:18 (after 53 minutes)

[Quote]

SATRip vs. BDRip
VHSRip vs. BDRip

[Profile] [PM]

Трамвай-фильм

Gender: Male

Longevity: 5 years 9 months

Posts: 1833

Location: Россия

Post 03-Feb-2016 00:11 (after 4 hours)

[Quote]

13086
13085У него кажись продолжение есть, называется "Апекс"
Не. Ни сюжетно, ни смыслово они не связаны. Режиссер один.
Там же расшифровка Advanced Prototype EXploration unit
[Profile] [PM]

AlexNT60 ®

Gender: Male

Longevity: 7 years 3 months

Posts: 136

Location: СПб

Post 03-Feb-2016 00:21 (after 10 minutes)

[Quote]

A.P.E.X
Недалекое будущее. Военные силы, финансирующие проект «Путешествие во времени», отправляют механического робота на 100 лет назад, чтобы тот изменил ход истории. Но следы посланника теряются во временных интервалах. Не дождавшись обратного сигнала, гениальный создатель машины времени, ученый — физик, сам отправляется в прошлое…
И костюмчик другой
[Profile] [PM]

Трамвай-фильм

Gender: Male

Longevity: 5 years 9 months

Posts: 1833

Location: Россия

Post 03-Feb-2016 19:48 (after 19 hours)

[Quote]

костюмчик типичный для 90-х гг. В будущем в такую хрень никто бы не оделся
[Profile] [PM]

kosmoaelita

Gender: Male

Longevity: 7 years 8 months

Posts: 1533

Post 05-Dec-2016 01:05 (after 10 months 1 day)

[Quote]

Добавлена русская ПМ дорожка от Варус-видео (с VHS)
[Profile] [PM]
Display posts:    
Reply to topic

Current time is: 29-May 07:13

All times are UTC + 3



You cannot post new topics in this forum
You cannot reply to topics in this forum
You cannot edit your posts in this forum
You cannot delete your posts in this forum
You cannot vote in polls in this forum
You cannot attach files in this forum
You cannot download files in this forum