Уравнитель 2000 / Equalizer 2000 (Cirio H. Santiago / Сирио Х. Сантьяго) [1987, США, Филиппины, Боевик, Фантастика, Постапокалипсис, BDRip-720p] [Uncut] АО (Сергей Кузнецов)

Ответить на тему
 
Автор Сообщение

AlexNT60 ®

Пол: Мужской

Стаж: 4 года 7 месяцев

Сообщений: 62

Откуда: СПб

Создавать темы 28-Янв-2016 00:49

[Цитировать]

Уравнитель 2000 / Equalizer 2000 (Uncut)
Страна: США, Филиппины
Жанр: Боевик, Фантастика, Постапокалипсис
Год выпуска: 1987
Продолжительность: 01:27:48
Перевод: Авторский (одноголосый) Сергей Кузнецов
Режиссер: Cirio H. Santiago / Сирио Х. Сантьяго
В ролях: Ричард Нортон, Корина Уол, Роберт Патрик, Уильям Стайс, Фредерик Бэйли, Рекс Каттер, Уоррен МакЛин, Питер Шилтон, Дон Гордон Белл.
Описание: После ядерной войны Аляска превратилась в пустыню. Не хватает всего, особенно воды. Всем заправляет жестокий тиран. Естественно, есть недовольные. Но силы не равны! И вот тогда главный герой изготовляет чудо-пулемёт УРАВНИТЕЛЬ 2000…
Доп. информация: Нет перевода: 23:46-24:10
Качество видео: BDRip-720p
Формат видео: MKV
Видео: x264, 5605 кбит/с, 1280x720, 23.976 к/с
Аудио: Русский AVO (С.Кузнецов) (AC3, 2 ch, 192 Кбит/с)
Аудио 2: Английский (AC3, 2 ch, 192 Кбит/с)
Работа над релизом:
Перевод uncut фрагментов - karlivanovich, их озвучка - den904



Пример русского перевода
[youtube][/youtube]

Дополнительно

слоган «The Final War Is Over. The Battle's Just Begun»
рейтинг MPAA лицам до 17 лет обязательно присутствие взрослого
Also Known As (AKA)
Brazil Equalizer 2000 - O Dominador do Futuro
Spain Equalizer 2000
France Apocalypse Warriors
Greece (video title) Equalizer 2000
Portugal Slade, o Dominador
West Germany Defender 2000

Отзывы

MediaInfo

Общее
Уникальный идентификатор : 195458426404142268930086180285685748374 (0x930BEC72FADD47CAB786CD1E79B8D296)
Полное имя : F:\Equalizer.2000.1987.x264.BDRip.720p.kosmoaelita.mkv
Формат : Matroska
Версия формата : Version 4 / Version 2
Размер файла : 3,67 Гбайт
Продолжительность : 1 ч. 27 м.
Общий поток : 5990 Кбит/сек
Название фильма : Equalizer 2000 (1987)
Дата кодирования : UTC 2016-02-04 17:32:56
Программа кодирования : mkvmerge v6.6.0 ('The Edge Of The In Between') built on Dec 1 2013 17:55:00
Библиотека кодирования : libebml v1.3.0 + libmatroska v1.4.1
Attachments : poster equa.jpg
Видео
Идентификатор : 1
Формат : AVC
Формат/Информация : Advanced Video Codec
Профиль формата : High@L4.1
Параметр CABAC формата : Да
Параметр ReFrames формата : 5 кадров
Идентификатор кодека : V_MPEG4/ISO/AVC
Продолжительность : 1 ч. 27 м.
Битрейт : 5605 Кбит/сек
Ширина : 1280 пикселей
Высота : 720 пикселей
Соотношение сторон : 16:9
Режим частоты кадров : Постоянный
Частота кадров : 23,976 (24000/1001) кадра/сек
Цветовое пространство : YUV
Субдискретизация насыщенности : 4:2:0
Битовая глубина : 8 бит
Тип развёртки : Прогрессивная
Бит/(Пиксели*Кадры) : 0.254
Размер потока : 3,36 Гбайт (92%)
Заголовок : kosmoaelita
Библиотека кодирования : x264 core 148 r2638 7599210
Настройки программы : cabac=1 / ref=5 / deblock=1:-3:-3 / analyse=0x3:0x113 / me=umh / subme=8 / psy=1 / psy_rd=1.00:0.25 / mixed_ref=1 / me_range=24 / chroma_me=1 / trellis=1 / 8x8dct=1 / cqm=0 / deadzone=21,11 / fast_pskip=1 / chroma_qp_offset=-4 / threads=12 / lookahead_threads=2 / sliced_threads=0 / nr=0 / decimate=1 / interlaced=0 / bluray_compat=0 / constrained_intra=0 / bframes=3 / b_pyramid=2 / b_adapt=2 / b_bias=0 / direct=3 / weightb=1 / open_gop=0 / weightp=2 / keyint=240 / keyint_min=24 / scenecut=40 / intra_refresh=0 / rc_lookahead=50 / rc=2pass / mbtree=1 / bitrate=5605 / ratetol=1.0 / qcomp=0.60 / qpmin=0 / qpmax=69 / qpstep=4 / cplxblur=20.0 / qblur=0.5 / vbv_maxrate=62500 / vbv_bufsize=78125 / nal_hrd=none / filler=0 / ip_ratio=1.40 / aq=1:0.50
Default : Да
Forced : Нет
Аудио #1
Идентификатор : 2
Формат : AC-3
Формат/Информация : Audio Coding 3
Расширение режима : CM (complete main)
Параметр Endianness формата : Big
Идентификатор кодека : A_AC3
Продолжительность : 1 ч. 27 м.
Вид битрейта : Постоянный
Битрейт : 192 Кбит/сек
Каналы : 2 канала
Расположение каналов : Front: L R
Частота : 48,0 КГц
Частота кадров : 31,250 кадров/сек (1536 spf)
Метод сжатия : С потерями
Размер потока : 121 Мбайт (3%)
Заголовок : Русский АО (С.Кузнецов) + den904 yна uncut версию
Язык : Russian
Default : Да
Forced : Нет
Аудио #2
Идентификатор : 3
Формат : AC-3
Формат/Информация : Audio Coding 3
Расширение режима : CM (complete main)
Параметр Endianness формата : Big
Идентификатор кодека : A_AC3
Продолжительность : 1 ч. 27 м.
Вид битрейта : Постоянный
Битрейт : 192 Кбит/сек
Каналы : 2 канала
Расположение каналов : Front: L R
Частота : 48,0 КГц
Частота кадров : 31,250 кадров/сек (1536 spf)
Метод сжатия : С потерями
Размер потока : 121 Мбайт (3%)
Язык : English
Default : Нет
Forced : Нет
Меню
00:00:00.000 : en:00:00:00.000
00:10:01.226 : en:00:10:01.226
00:19:59.198 : en:00:19:59.198
00:30:01.800 : en:00:30:01.800
00:40:02.400 : en:00:40:02.400
00:50:03.000 : en:00:50:03.000
01:00:03.600 : en:01:00:03.600
01:10:04.200 : en:01:10:04.200
01:20:04.800 : en:01:20:04.800
01:25:57.069 : en:01:25:57.069

Скриншот c названием фильма

Скриншоты




Скринлист



Последний раз редактировалось: AlexNT60 (2017-03-01 17:57), всего редактировалось 1 раз
[Профиль] [ЛС]

admin

Пол: Мужской

Стаж: 5 лет

Сообщений: 4750

Откуда: Україна

Создавать темы 04-Фев-2016 21:36 (спустя 7 дней)

[Цитировать]

Добавлен перевод на пропущенные фрагменты
[Профиль] [ЛС]
Показать сообщения:    
Ответить на тему

Текущее время: 25-Сен 17:00

Часовой пояс: UTC + 3:30



Вы не можете начинать темы
Вы не можете отвечать на сообщения
Вы не можете редактировать свои сообщения
Вы не можете удалять свои сообщения
Вы не можете голосовать в опросах
Вы не можете прикреплять файлы к сообщениям
Вы не можете скачивать файлы