Сестринство / The Sisterhood (Cirio H. Santiago / Сирио Х. Сантьяго) [1988, CША, фантастика, боевик, постапокалипсис, BDRip-1080p] АО (Владимир Воронцов)

Reply to topic
 
Author Message

AlexNT60 ®

Gender: Male

Longevity: 6 years 3 months

Posts: 97

Location: СПб

Post 24-Jan-2016 02:44

[Quote]

Сестринство / The Sisterhood
Страна: CША, Santa Fe
Жанр: фантастика, боевик, постапокалипсис
Год выпуска: 1988
Продолжительность: 01:32:23
Перевод: Авторский (одноголосый) Владимир Воронцов
Режиссер: Cirio H. Santiago / Сирио Х. Сантьяго
В ролях:
Rebecca Holden ... Alee
Chuck Wagner ... Mikal
Lynn-Holly Johnson ... Marya (as Lyn Holly Johnson)
Barbara Patrick ... Vera (as Barbara Hooper)
Robert Dryer ... Lord Barak
Henry Strzalkowski ... Jon
David Light ... Jev
Jim Moss ... Alek
Anthony East ... Lord Jak
Tom McNeeley ... Gil
Warren McLean ... Sit Ster (as Warren MacLean)
Willy Schober ... Rolf (as Willie Morales)
Peter Shilton ... Priest
Kenneth Peerless ... Lord Kragg
Steve Rogers ... Guard 1
Описание: В новый темный век насилия в 2021 году, все женщины становятся беспомощными рабами жестокого, мужского общества — все женщины, кроме смертельно опасных девиц из общества «Боевые сестры».
Качество видео: BDRip-1080p
Формат видео: MKV
Видео: x264, 8643 кбит/с, 1920x1080, 23.976 к/с
Аудио: Русский AVO (B.Воронцов) (AC3, 2 ch, 192 Кбит/с)
Аудио 2: Английский (AC3, 2 ch, 640 Кбит/с)
Работа над релизом:
Видеоряд найден на rarbg2018.org
В переводе Воронцова отсутствуют два фрагмента на 0:41:17 - 0:41:40 и 1:18:06 - 1:19:48
Перевод uncut фрагментов - karlivanovich, их озвучка - den904



Пример русского перевода

Дополнительно

слоган «Amazon warriors fight to survive a world gone mad!»
рейтинг MPAA лицам до 17 лет обязательно присутствие взрослого
Also Known As (AKA) Canada (French title) Les guerrières du futur
Spain Guerreras, año 2000
Greece (video title) 2021 m.H. Gynaikes sta opla
Philippines (English title) Caged Woman

Отзывы

MediaInfo

Общее
Уникальный идентификатор : 238335986166610712865058295103216265375 (0xB34DD75CB4C6FACDB5AB8F5ABF3DA89F)
Полное имя : N:\BD-DISC\The.Sisterhood.1988.1080p.BluRay.x264-SADPANDA\The Sisterhood 1988.x264.BDRip.1080p.Rus.kosmoaelita.mkv
Формат : Matroska
Версия формата : Version 4 / Version 2
Размер файла : 6,11 Гбайт
Продолжительность : 1 ч. 32 м.
Общий поток : 9477 Кбит/сек
Название фильма : The Sisterhood (1988) kosmoaelita
Дата кодирования : UTC 2019-01-04 02:32:42
Программа кодирования : mkvmerge v6.6.0 ('The Edge Of The In Between') built on Dec 1 2013 17:55:00
Библиотека кодирования : libebml v1.3.0 + libmatroska v1.4.1
Attachments : poster The Sisterhood 1988.jpg
Видео
Идентификатор : 1
Формат : AVC
Формат/Информация : Advanced Video Codec
Профиль формата : High@L4.1
Параметр CABAC формата : Да
Параметр ReFrames формата : 4 кадра
Идентификатор кодека : V_MPEG4/ISO/AVC
Продолжительность : 1 ч. 32 м.
Битрейт : 8643 Кбит/сек
Ширина : 1920 пикселей
Высота : 1080 пикселей
Соотношение сторон : 16:9
Режим частоты кадров : Постоянный
Частота кадров : 23,976 (24000/1001) кадра/сек
Цветовое пространство : YUV
Субдискретизация насыщенности : 4:2:0
Битовая глубина : 8 бит
Тип развёртки : Прогрессивная
Бит/(Пиксели*Кадры) : 0.174
Размер потока : 5,46 Гбайт (89%)
Заголовок : http://kosmoaelita.com/viewtopic.php?t=1984
Библиотека кодирования : x264 core 148 r2638 7599210
Настройки программы : cabac=1 / ref=4 / deblock=1:-3:-3 / analyse=0x3:0x113 / me=umh / subme=8 / psy=1 / psy_rd=1.00:0.25 / mixed_ref=1 / me_range=24 / chroma_me=1 / trellis=1 / 8x8dct=1 / cqm=0 / deadzone=21,11 / fast_pskip=1 / chroma_qp_offset=-4 / threads=12 / lookahead_threads=2 / sliced_threads=0 / nr=0 / decimate=1 / interlaced=0 / bluray_compat=0 / constrained_intra=0 / bframes=3 / b_pyramid=2 / b_adapt=2 / b_bias=0 / direct=3 / weightb=1 / open_gop=0 / weightp=2 / keyint=240 / keyint_min=24 / scenecut=40 / intra_refresh=0 / rc_lookahead=50 / rc=2pass / mbtree=1 / bitrate=8643 / ratetol=1.0 / qcomp=0.60 / qpmin=0 / qpmax=69 / qpstep=4 / cplxblur=20.0 / qblur=0.5 / vbv_maxrate=62500 / vbv_bufsize=78125 / nal_hrd=none / filler=0 / ip_ratio=1.40 / aq=1:0.50
Default : Да
Forced : Нет
Statistics Tags Issue : mkvmerge v8.7.0 ('All of the above') 64bit 2016-01-06 15:15:47 / mkvmerge v6.6.0 ('The Edge Of The In Between') built on Dec 1 2013 17:55:00 2019-01-04 02:32:42
FromStats_BitRate : 8642611
FromStats_Duration : 01:32:22.537000000
FromStats_FrameCount : 132888
FromStats_StreamSize : 5987749138
Аудио #1
Идентификатор : 2
Формат : AC-3
Формат/Информация : Audio Coding 3
Расширение режима : CM (complete main)
Параметр Endianness формата : Big
Идентификатор кодека : A_AC3
Продолжительность : 1 ч. 32 м.
Вид битрейта : Постоянный
Битрейт : 192 Кбит/сек
Каналы : 2 канала
Расположение каналов : Front: L R
Частота : 48,0 КГц
Частота кадров : 31,250 кадров/сек (1536 spf)
Метод сжатия : С потерями
Размер потока : 127 Мбайт (2%)
Заголовок : Русский (В.Воронцов) + den904 на uncut версию
Язык : Russian
Default : Да
Forced : Нет
Аудио #2
Идентификатор : 3
Формат : AC-3
Формат/Информация : Audio Coding 3
Расширение режима : CM (complete main)
Параметр Endianness формата : Big
Идентификатор кодека : A_AC3
Продолжительность : 1 ч. 32 м.
Вид битрейта : Постоянный
Битрейт : 640 Кбит/сек
Каналы : 2 канала
Расположение каналов : Front: L R
Частота : 48,0 КГц
Частота кадров : 31,250 кадров/сек (1536 spf)
Метод сжатия : С потерями
Размер потока : 423 Мбайт (7%)
Язык : English
Default : Нет
Forced : Нет
Меню
00:00:00.000 : en:00:00:00.000
00:10:00.600 : en:00:10:00.600
00:20:01.200 : en:00:20:01.200
00:30:01.800 : en:00:30:01.800
00:40:03.401 : en:00:40:03.401
00:50:03.000 : en:00:50:03.000
01:00:03.600 : en:01:00:03.600
01:10:01.197 : en:01:10:01.197
01:20:04.800 : en:01:20:04.800
01:30:05.400 : en:01:30:05.400

Скриншот c названием фильма

Скриншоты



















Скринлист

Файл дополнительно залит на ОБЛАКО
[Profile] [PM]

Трамвай-фильм

Gender: Male

Longevity: 4 years 9 months

Posts: 1454

Location: Россия

Post 24-Jan-2016 16:14 (after 13 hours)

[Quote]

Помню мода была одно время на такие фильмы.
[Profile] [PM]

admin

Gender: Male

Longevity: 6 years 8 months

Posts: 4725

Location: Україна

Post 04-Feb-2016 21:06 (after 11 days)

[Quote]

Добавлен перевод на пропущ. фрагменты
[Profile] [PM]

$Shorox

Gender: Male

Longevity: 6 years 5 months

Posts: 1888

Post 10-Feb-2016 02:16 (after 5 days)

[Quote]

Что-то не скачивается.
[Profile] [PM]

Susanin

Gender: Male

Longevity: 5 years 1 month

Posts: 812

Post 01-Jan-2019 11:44 (after 2 years 10 months)

[Quote]

The Sisterhood [1988/BDRIP/1080p/x264]
http://cinemageddon.net/details.php?id=217045
[Profile] [PM]

kosmoaelita2

Gender: Male

Longevity: 6 years 7 months

Posts: 722

Post 04-Jan-2019 05:33 (after 2 days 17 hours)

[Quote]

Замена на BDRip-1080p
[Profile] [PM]
Display posts:    
Reply to topic

Current time is: 26-May 10:37

All times are UTC + 3



You cannot post new topics in this forum
You cannot reply to topics in this forum
You cannot edit your posts in this forum
You cannot delete your posts in this forum
You cannot vote in polls in this forum
You cannot attach files in this forum
You cannot download files in this forum