Сестринство / The Sisterhood (Cirio H. Santiago / Сирио Х. Сантьяго) [1988, CША, фантастика, боевик, постапокалипсис, BDRip-720p] (АО : Владимир Воронцов)

Ответить на тему
 
Автор Сообщение

AlexNT60 ®

Пол: Мужской

Стаж: 5 лет 6 месяцев

Сообщений: 69

Откуда: СПб

Создавать темы 24-Янв-2016 03:14

[Цитировать]

Сестринство / The Sisterhood
Страна: CША, Santa Fe
Жанр: фантастика, боевик, постапокалипсис
Год выпуска: 1988
Продолжительность: 01:32:22
Перевод: Авторский (одноголосый) Владимир Воронцов
Режиссер: Cirio H. Santiago / Сирио Х. Сантьяго
В ролях:
Rebecca Holden ... Alee
Chuck Wagner ... Mikal
Lynn-Holly Johnson ... Marya (as Lyn Holly Johnson)
Barbara Patrick ... Vera (as Barbara Hooper)
Robert Dryer ... Lord Barak
Henry Strzalkowski ... Jon
David Light ... Jev
Jim Moss ... Alek
Anthony East ... Lord Jak
Tom McNeeley ... Gil
Warren McLean ... Sit Ster (as Warren MacLean)
Willy Schober ... Rolf (as Willie Morales)
Peter Shilton ... Priest
Kenneth Peerless ... Lord Kragg
Steve Rogers ... Guard 1
Описание: В новый темный век насилия в 2021 году, все женщины становятся беспомощными рабами жестокого, мужского общества — все женщины, кроме смертельно опасных девиц из общества «Боевые сестры».
Доп. информация: В переводе отсутствуют два фрагмента на 0:41:17 - 0:41:40 и 1:18:06 - 1:19:48
Качество видео: BDRip-720p
Формат видео: MKV
Видео: x264, 5252 кбит/с, 1280x720, 23.976 к/с
Аудио: Русский AVO (B.Воронцов) (AC3, 2 ch, 192 Кбит/с)
Аудио 2: Английский (AC3, 2 ch, 192 Кбит/с)
Работа над релизом:
Перевод uncut фрагментов - karlivanovich, их озвучка - den904



Пример русского перевода

Дополнительно

слоган «Amazon warriors fight to survive a world gone mad!»
рейтинг MPAA лицам до 17 лет обязательно присутствие взрослого
Also Known As (AKA) Canada (French title) Les guerrières du futur
Spain Guerreras, año 2000
Greece (video title) 2021 m.H. Gynaikes sta opla
Philippines (English title) Caged Woman

Отзывы

MediaInfo

Общее
Уникальный идентификатор : 179194187868076922847785531638717698039 (0x86CF8B940802307AA5E7C0D6D9B54FF7)
Полное имя : F:\The Sisterhood 1988.x264.BDRip.720p.kosmoaelita.mkv
Формат : Matroska
Версия формата : Version 4 / Version 2
Размер файла : 3,64 Гбайт
Продолжительность : 1 ч. 32 м.
Общий поток : 5638 Кбит/сек
Название фильма : The Sisterhood (1988)
Дата кодирования : UTC 2016-02-04 17:35:36
Программа кодирования : mkvmerge v6.6.0 ('The Edge Of The In Between') built on Dec 1 2013 17:55:00
Библиотека кодирования : libebml v1.3.0 + libmatroska v1.4.1
Attachments : poster The Sisterhood 1988.jpg
Видео
Идентификатор : 1
Формат : AVC
Формат/Информация : Advanced Video Codec
Профиль формата : High@L4.1
Параметр CABAC формата : Да
Параметр ReFrames формата : 5 кадров
Идентификатор кодека : V_MPEG4/ISO/AVC
Продолжительность : 1 ч. 32 м.
Битрейт : 5252 Кбит/сек
Ширина : 1280 пикселей
Высота : 720 пикселей
Соотношение сторон : 16:9
Режим частоты кадров : Постоянный
Частота кадров : 23,976 (24000/1001) кадра/сек
Цветовое пространство : YUV
Субдискретизация насыщенности : 4:2:0
Битовая глубина : 8 бит
Тип развёртки : Прогрессивная
Бит/(Пиксели*Кадры) : 0.238
Размер потока : 3,32 Гбайт (91%)
Заголовок : kosmoaelita
Библиотека кодирования : x264 core 148 r2638 7599210
Настройки программы : cabac=1 / ref=5 / deblock=1:-3:-3 / analyse=0x3:0x113 / me=umh / subme=8 / psy=1 / psy_rd=1.00:0.25 / mixed_ref=1 / me_range=24 / chroma_me=1 / trellis=1 / 8x8dct=1 / cqm=0 / deadzone=21,11 / fast_pskip=1 / chroma_qp_offset=-4 / threads=12 / lookahead_threads=2 / sliced_threads=0 / nr=0 / decimate=1 / interlaced=0 / bluray_compat=0 / constrained_intra=0 / bframes=3 / b_pyramid=2 / b_adapt=2 / b_bias=0 / direct=3 / weightb=1 / open_gop=0 / weightp=2 / keyint=240 / keyint_min=24 / scenecut=40 / intra_refresh=0 / rc_lookahead=50 / rc=2pass / mbtree=1 / bitrate=5252 / ratetol=1.0 / qcomp=0.60 / qpmin=0 / qpmax=69 / qpstep=4 / cplxblur=20.0 / qblur=0.5 / vbv_maxrate=62500 / vbv_bufsize=78125 / nal_hrd=none / filler=0 / ip_ratio=1.40 / aq=1:0.50
Default : Да
Forced : Нет
Statistics Tags Issue : mkvmerge v8.8.0 ('Wind at my back') 64bit 2016-01-22 10:17:45 / mkvmerge v6.6.0 ('The Edge Of The In Between') built on Dec 1 2013 17:55:00 2016-02-04 17:35:36
FromStats_BitRate : 5251933
FromStats_Duration : 01:32:22.537000000
FromStats_FrameCount : 132888
FromStats_StreamSize : 3638629445
Аудио #1
Идентификатор : 2
Формат : AC-3
Формат/Информация : Audio Coding 3
Расширение режима : CM (complete main)
Параметр Endianness формата : Big
Идентификатор кодека : A_AC3
Продолжительность : 1 ч. 32 м.
Вид битрейта : Постоянный
Битрейт : 192 Кбит/сек
Каналы : 2 канала
Расположение каналов : Front: L R
Частота : 48,0 КГц
Частота кадров : 31,250 кадров/сек (1536 spf)
Метод сжатия : С потерями
Размер потока : 127 Мбайт (3%)
Заголовок : Русский (В.Воронцов) + den904 на uncut версию
Язык : Russian
Default : Да
Forced : Нет
Аудио #2
Идентификатор : 3
Формат : AC-3
Формат/Информация : Audio Coding 3
Расширение режима : CM (complete main)
Параметр Endianness формата : Big
Идентификатор кодека : A_AC3
Продолжительность : 1 ч. 32 м.
Вид битрейта : Постоянный
Битрейт : 192 Кбит/сек
Каналы : 2 канала
Расположение каналов : Front: L R
Частота : 48,0 КГц
Частота кадров : 31,250 кадров/сек (1536 spf)
Метод сжатия : С потерями
Размер потока : 127 Мбайт (3%)
Язык : English
Default : Нет
Forced : Нет
Statistics Tags Issue : mkvmerge v8.8.0 ('Wind at my back') 64bit 2016-01-22 10:17:45 / mkvmerge v6.6.0 ('The Edge Of The In Between') built on Dec 1 2013 17:55:00 2016-02-04 17:35:36
FromStats_BitRate : 192000
FromStats_Duration : 01:32:22.432000000
FromStats_FrameCount : 173201
FromStats_StreamSize : 133018368
Меню
00:00:00.000 : en:00:00:00.000
00:10:00.600 : en:00:10:00.600
00:20:01.200 : en:00:20:01.200
00:30:01.800 : en:00:30:01.800
00:40:03.401 : en:00:40:03.401
00:50:03.000 : en:00:50:03.000
01:00:03.600 : en:01:00:03.600
01:10:01.197 : en:01:10:01.197
01:20:04.800 : en:01:20:04.800
01:30:05.400 : en:01:30:05.400

Скриншот c названием фильма

Скриншоты



















Скринлист

[Профиль] [ЛС]

Трамвай-фильм

Пол: Мужской

Стаж: 4 года

Сообщений: 1260

Откуда: Россия

Создавать темы 24-Янв-2016 16:44 (спустя 13 часов)

[Цитировать]

Помню мода была одно время на такие фильмы.
[Профиль] [ЛС]

admin

Пол: Мужской

Стаж: 5 лет 11 месяцев

Сообщений: 4739

Откуда: Україна

Создавать темы 04-Фев-2016 21:36 (спустя 11 дней)

[Цитировать]

Добавлен перевод на пропущ. фрагменты
[Профиль] [ЛС]

$Shorox

Пол: Мужской

Стаж: 5 лет 8 месяцев

Сообщений: 1890

Создавать темы 10-Фев-2016 02:46 (спустя 5 дней)

[Цитировать]

Что-то не скачивается.
[Профиль] [ЛС]
Показать сообщения:    
Ответить на тему

Текущее время: 18-Авг 07:42

Часовой пояс: UTC + 3:30



Вы не можете начинать темы
Вы не можете отвечать на сообщения
Вы не можете редактировать свои сообщения
Вы не можете удалять свои сообщения
Вы не можете голосовать в опросах
Вы не можете прикреплять файлы к сообщениям
Вы не можете скачивать файлы