Приключения со "Звездной командой Джейсона" / The Adventures of Jason of Star Command [2005, США, документальный, DVDRip] (АО : Трамвай фильм)

Ответить на тему
Статистика раздачи
Размер:  397 MB   |    Зарегистрирован:  2 года 8 месяцев   |    Скачан:  11 раз

Сидов:

Пользователь ULR Отдано Скачано Отдача Загрузка
evilbuch 0 0- 0- 0- 0-
показаны данные только за текущую сессию
 
   
 
 
 
Автор Сообщение

Трамвай-фильм ®

Пол: Мужской

Стаж: 4 года 2 месяца

Сообщений: 1312

Откуда: Россия

Создавать темы 23-Янв-2016 17:46

[Цитировать]

Приключения со "Звездной командой Джейсона" / The Adventures of Jason of Star Command
Страна: США
Жанр: документальный
Год выпуска: 2005
Продолжительность: 00:31:07
Перевод: Авторский (одноголосый) _ Трамвай фильм
В ролях: Сид Хэйг, Крейг Литтлер, Лу Шаймер и др.
Описание: Документальный фильм о том как снимался легендарный сериал "Звездная команда Джейсона"
Качество видео: DVDRip
Формат видео: MKV
Видео: MPEG4 Video (H264), 720x370, 25fps, 1 400 Kbps
Аудио: Dolby AC3, 48000Hz, stereo, 192kbps (рус.)
Аудио 2: Dolby AC3, 48000Hz, stereo, 192kbps (англ.)
Формат субтитров: softsub (SRT)
Доп. информация о субтитрах: Коментарии и надписи

Дополнительно

Бонусное приложение к одному из ДВД "Jason of Star Command"

MediaInfo

Format : Matroska
Format version : Version 4 / Version 2
File size : 397 MiB
Duration : 31mn 7s
Overall bit rate : 1 785 Kbps
Encoded date : UTC 2016-01-23 12:49:17
Writing application : mkvmerge v7.1.0 ('Good Love') 32bit built on Jul 27 2014 12:59:18
Writing library : libebml v1.3.0 + libmatroska v1.4.1
DURATION : 00:25:49.609000000
NUMBER_OF_FRAMES : 13
NUMBER_OF_BYTES : 1041
_STATISTICS_WRITING_APP : mkvmerge v7.1.0 ('Good Love') 32bit built on Jul 27 2014 12:59:18
_STATISTICS_WRITING_DATE_UTC : 2016-01-23 12:49:17
_STATISTICS_TAGS : BPS DURATION NUMBER_OF_FRAMES NUMBER_OF_BYTES
Attachment : Yes
Video
ID : 1
Format : AVC
Format/Info : Advanced Video Codec
Format profile : High@L4.1
Format settings, CABAC : Yes
Format settings, ReFrames : 8 frames
Codec ID : V_MPEG4/ISO/AVC
Duration : 31mn 7s
Bit rate : 1 400 Kbps
Width : 720 pixels
Height : 370 pixels
Display aspect ratio : 1.946
Frame rate mode : Constant
Frame rate : 25.000 fps
Color space : YUV
Chroma subsampling : 4:2:0
Bit depth : 8 bits
Scan type : Progressive
Bits/(Pixel*Frame) : 0.210
Stream size : 304 MiB (77%)
Title : kosmoaelita
Writing library : x264 core 130 r2273 b3065e6
Encoding settings : cabac=1 / ref=8 / deblock=1:-2:-2 / analyse=0x3:0x133 / me=umh / subme=10 / psy=1 / psy_rd=0.99:0.14 / mixed_ref=1 / me_range=24 / chroma_me=1 / trellis=2 / 8x8dct=1 / cqm=0 / deadzone=21,11 / fast_pskip=1 / chroma_qp_offset=-3 / threads=6 / lookahead_threads=1 / sliced_threads=0 / nr=0 / decimate=1 / interlaced=0 / bluray_compat=0 / constrained_intra=0 / bframes=8 / b_pyramid=2 / b_adapt=2 / b_bias=0 / direct=3 / weightb=1 / open_gop=0 / weightp=2 / keyint=210 / keyint_min=21 / scenecut=40 / intra_refresh=0 / rc_lookahead=80 / rc=2pass / mbtree=1 / bitrate=1400 / ratetol=1.0 / qcomp=0.65 / qpmin=0 / qpmax=69 / qpstep=4 / cplxblur=20.0 / qblur=0.5 / ip_ratio=1.25 / aq=1:0.90
Default : Yes
Forced : No
Color primaries : BT.601 NTSC
Transfer characteristics : BT.601
Matrix coefficients : BT.601
Audio #1
ID : 2
Format : AC-3
Format/Info : Audio Coding 3
Mode extension : CM (complete main)
Format settings, Endianness : Big
Codec ID : A_AC3
Duration : 31mn 7s
Bit rate mode : Constant
Bit rate : 192 Kbps
Channel(s) : 2 channels
Channel positions : Front: L R
Sampling rate : 48.0 KHz
Bit depth : 16 bits
Compression mode : Lossy
Stream size : 42.7 MiB (11%)
Language : Russian
Default : Yes
Forced : Yes
Audio #2
ID : 3
Format : AC-3
Format/Info : Audio Coding 3
Mode extension : CM (complete main)
Format settings, Endianness : Big
Codec ID : A_AC3
Duration : 31mn 7s
Bit rate mode : Constant
Bit rate : 192 Kbps
Channel(s) : 2 channels
Channel positions : Front: L R
Sampling rate : 48.0 KHz
Bit depth : 16 bits
Compression mode : Lossy
Stream size : 42.7 MiB (11%)
Language : English
Default : No
Forced : No
Text
ID : 4
Format : UTF-8
Codec ID : S_TEXT/UTF8
Codec ID/Info : UTF-8 Plain Text
Title : комменатрии
Default : Yes
Forced : No

Скриншоты




cd Рип дополнительно залит на ОБЛАКО cd2
The-Adventures-of-Jason-of-Star-Command.torrent
Торрент: Зарегистрирован [ 2016-01-23 17:46 ]

Скачать .torrent

Скачать

16 KB

Статус: проверено
Скачан: 11 раз
Размер: 397 MB
 
[Профиль] [ЛС]

admin

Пол: Мужской

Стаж: 6 лет 1 месяц

Сообщений: 4729

Откуда: Україна

Создавать темы 23-Янв-2016 21:04 (спустя 3 часа)

[Цитировать]

Сам сериал
http://kosmoaelita.com/viewtopic.php?t=70
[Профиль] [ЛС]
Показать сообщения:    
Ответить на тему

Текущее время: 15-Окт 23:22

Часовой пояс: UTC + 3:30



Вы не можете начинать темы
Вы не можете отвечать на сообщения
Вы не можете редактировать свои сообщения
Вы не можете удалять свои сообщения
Вы не можете голосовать в опросах
Вы не можете прикреплять файлы к сообщениям
Вы можете скачивать файлы