Человек из 25-го столетия / The Man From The 25th Century (Irwin Allen / Ирвин Аллен) [1968, США, Фантастика, VHSRip] ЛО (den904), СТ (kosmoaelita-karlivanovich)

Reply to topic
 
Author Message

admin ®

Gender: Male

Longevity: 7 years 7 months

Posts: 4811

Post 21-Jan-2016 17:13

[Quote]

Человек из 25-го столетия / The Man From The 25th Century
Страна: США, Columbia Broadcasting System (CBS), Irwin Allen Productions, Man From the 25th Century Company
Жанр: Фантастика
Год выпуска: 1968
Продолжительность: 00:16:21
Перевод: ЛО den904 по субтитрам от (kosmoaelita-karlivanovich)
Режиссер: Irwin Allen / Ирвин Аллен
В ролях:
James Darren ... Tomo / Robert Prentiss
John Crawford ... Bonti
Patrick Culliton
John Napier ... Karl Baldwin
Ford Rainey ... General George Atwood
Описание: Где-то на голубой планете на арене стоит человек, за которым наблюдают пятеро Чужих. Они проверяют его умственные и физические способности. Этому человеку 27 лет и родился он в 1951 году на планете Земля.
Это пилотный фильм планировавшегося сериала режиссера Ирвина Аллена с Джеймсом Дарреном в главной роли о человеке, воспитанном инопланетянами, который должен был помочь им преодолеть оборону Земли. Но, конечно, не так вышло, как планировалось.
Хотя во многих местах этот фильм описан как пилотная серия, но он больше похож на демо-ролик, в котором присутствуют и изюминка, и концепция того, что пытается сделать Ирвин Аллен, но без реальных финансовых вложений в антураж и реквизит.(Легко узнаются слегка переделанные декорации из "Затерянных в космосе").

Релиз

Качество: VHSRip
Формат: MKV
Видео: XviD, 1222 кбит/с, 416х304, 29.97 к/с
Аудио 1: Русский ЛО (den904) (AC3, 2 ch, 192 Кбит/с)
Аудио 2: Английский (AC3, 2 ch, 192 Кбит/с)
Субтитры : Русские (kosmoaelita-karlivanovich)
Работа над релизом:
Релиз kosmoaelita.
Видеоряд найден на tv-vault.me.
Перевод на слух с англ. по заказу kosmoaelita - karlivanovich
Русская озвучка по заказу kosmoaelita - den904
Спонсор русской озвучки - Андрей Берг

[kp][/kp]

Пример русских субтитров

Пример русской озвучки

Дополнительно

================================================
Для удаления,добавления и извлечения дорожек в mkv используйте бесплатную портативную mkvmerge GUI 7.1.0
Для присоединения потом дорожек к avi воспользуйтесь VirtualDubMod

MediaInfo

Общее
Уникальный идентификатор : 196759592674455669985819403269578061346 (0x940684E6359C7539AA19ED9279E27622)
Полное имя : F:\The Man From The 25th Century 1968.XviD.VHSRip.Rus.kosmoaelita.mkv
Формат : Matroska
Версия формата : Version 4 / Version 2
Размер файла : 191 Мбайт
Продолжительность : 16 м.
Общий поток : 1635 Кбит/сек
Название фильма : The Man From The 25th Century / 1968 / Релиз www.kosmoaelita.com
Дата кодирования : UTC 2016-05-14 23:31:07
Программа кодирования : mkvmerge v6.6.0 ('The Edge Of The In Between') built on Dec 1 2013 17:55:00
Библиотека кодирования : libebml v1.3.0 + libmatroska v1.4.1
Видео
Идентификатор : 1
Формат : MPEG-4 Visual
Профиль формата : Advanced Simple@L5
Параметр BVOP формата : Да
Параметр QPel формата : Нет
Параметр GMC формата : Без точки перехода
Параметр матрицы формата : Выборочная
Идентификатор кодека : V_MS/VFW/FOURCC / XVID
Идентификатор кодека/Подсказка : XviD
Продолжительность : 16 м.
Битрейт : 1219 Кбит/сек
Ширина : 416 пикселей
Высота : 304 пикселя
Соотношение сторон : 4:3
Режим частоты кадров : Постоянный
Частота кадров : 29,970 (30000/1001) кадров/сек
Цветовое пространство : YUV
Субдискретизация насыщенности : 4:2:0
Битовая глубина : 8 бит
Тип развёртки : Прогрессивная
Метод сжатия : С потерями
Бит/(Пиксели*Кадры) : 0.322
Размер потока : 142 Мбайт (75%)
Заголовок : kosmoaelita
Библиотека кодирования : XviD 1.2.1 (UTC 2008-12-04)
Default : Да
Forced : Нет
Аудио #1
Идентификатор : 2
Формат : AC-3
Формат/Информация : Audio Coding 3
Расширение режима : CM (complete main)
Параметр Endianness формата : Big
Идентификатор кодека : A_AC3
Продолжительность : 16 м.
Вид битрейта : Постоянный
Битрейт : 192 Кбит/сек
Каналы : 2 канала
Расположение каналов : Front: L R
Частота : 48,0 КГц
Частота кадров : 31,250 кадров/сек (1536 spf)
Метод сжатия : С потерями
Размер потока : 22,4 Мбайт (12%)
Заголовок : Русский ЛО (den904 для kosmoaelita.com) - поддержка А.Берг
Язык : Russian
Default : Да
Forced : Нет
Аудио #2
Идентификатор : 3
Формат : AC-3
Формат/Информация : Audio Coding 3
Расширение режима : CM (complete main)
Параметр Endianness формата : Big
Идентификатор кодека : A_AC3
Продолжительность : 16 м.
Вид битрейта : Постоянный
Битрейт : 192 Кбит/сек
Каналы : 2 канала
Расположение каналов : Front: L R
Частота : 48,0 КГц
Частота кадров : 31,250 кадров/сек (1536 spf)
Метод сжатия : С потерями
Размер потока : 22,4 Мбайт (12%)
Язык : English
Default : Нет
Forced : Нет
Текст #1
Идентификатор : 4
Формат : VobSub
Режим смешивания : zlib
Идентификатор кодека : S_VOBSUB
Идентификатор кодека/Информация : Picture based subtitle format used on DVDs
Заголовок : Русский (kosmoaelita-karlivanovich) VobSub - перевод на слух с англ.
Язык : Russian
Default : Да
Forced : Нет
Текст #2
Идентификатор : 5
Формат : VobSub
Режим смешивания : zlib
Идентификатор кодека : S_VOBSUB
Идентификатор кодека/Информация : Picture based subtitle format used on DVDs
Заголовок : Русский (kosmoaelita-karlivanovich) VobSub - перевод на слух с англ.
Язык : Russian
Default : Нет
Forced : Нет
Текст #3
Идентификатор : 6
Формат : UTF-8
Идентификатор кодека : S_TEXT/UTF8
Идентификатор кодека/Информация : UTF-8 Plain Text
Заголовок : Русский (kosmoaelita-karlivanovich) srt - перевод на слух с англ.
Язык : Russian
Default : Нет
Forced : Нет

Пример субтитров

1
00:00:04,270 --> 00:00:06,830
От человека, который создал для вас...
2
00:00:06,960 --> 00:00:09,520
..."Путешествие ко дну моря"
3
00:00:15,430 --> 00:00:17,910
..."Затерянных в космосе"
4
00:00:22,980 --> 00:00:24,970
..."Туннель времени"
5
00:00:30,310 --> 00:00:32,500
..."Землю гигантов"
6
00:00:37,650 --> 00:00:41,810
...и обладателя Оскара
"Море вокруг нас"...
7
00:00:52,180 --> 00:00:55,250
...Ирвина Аллена, который
теперь представляет вам фильм...
8
00:00:58,920 --> 00:01:07,340
<i>..."ЧЕЛОВЕК ИЗ 25-ГО СТОЛЕТИЯ"
(The Man From The 25th Century, 1968г)</i>
-------------------
158
00:15:46,730 --> 00:15:49,940
Боюсь, что только начало...
159
00:15:51,220 --> 00:15:57,380
Человек из 25-го столетия
160
00:16:00,150 --> 00:16:02,010
в главной роли ДЖЕЙМС ДАРРЕН
161
00:16:03,150 --> 00:16:05,520
а также ДЖОН НАПИЕР
162
00:16:06,510 --> 00:16:09,180
ФОРД РЕЙНИ
163
00:16:10,120 --> 00:16:12,120
и ДЖОН КРОУФОРД

Скриншоты









Скринлист



Last edited by admin on 2016-05-15 02:38; edited 14 times in total
[Profile] [PM]

admin ®

Gender: Male

Longevity: 7 years 7 months

Posts: 4811

Post 21-Jan-2016 17:14 (after 41 second)

[Quote]

Пилот (вернее демо-версия) сериала Ирвина Аллена. который так и не получил продолжения
[Profile] [PM]

Трамвай-фильм

Gender: Male

Longevity: 5 years 8 months

Posts: 1825

Location: Россия

Post 21-Jan-2016 17:58 (after 44 minutes)

[Quote]

Видео, как с китайских мобил 0.1 мп.
[Profile] [PM]

admin ®

Gender: Male

Longevity: 7 years 7 months

Posts: 4811

Post 21-Jan-2016 18:24 (after 25 minutes)

[Quote]

Подобных инопланетян Ирвин Аллен использовал тремя годами раньше в "Lost in Spaсe"

[Profile] [PM]

Трамвай-фильм

Gender: Male

Longevity: 5 years 8 months

Posts: 1825

Location: Россия

Post 21-Jan-2016 20:21 (after 1 hour 56 minutes)

[Quote]

да это вообще класисч. форма инопланетянина с большой башкой-лампочкой
[Profile] [PM]

ИТИть

Gender: Unknown

Post 21-Jan-2016 20:23 (after 2 minutes)

[Quote]

Интересно, это первая версия 1967-го года, или "исправленная" 1968-го?
Архивы CBS:
 

admin ®

Gender: Male

Longevity: 7 years 7 months

Posts: 4811

Post 21-Jan-2016 21:26 (after 1 hour 3 minutes)

[Quote]

А кто его знает - рип только один в сети, на твваулте. Да и тот, по-моему. без окончания.
[Profile] [PM]

ИТИть

Gender: Unknown

Post 22-Jan-2016 18:02 (after 20 hours)

[Quote]

12936... и концепция того, что пытаются сделать Чужие...
... и концепция того, что пытается сделать Аллен...
 

admin ®

Gender: Male

Longevity: 7 years 7 months

Posts: 4811

Post 22-Jan-2016 18:15 (after 12 minutes)

[Quote]

Иванов. дайте почту - я вам инвайт вышлю
[Profile] [PM]

ИТИть

Gender: Unknown

Post 25-Jan-2016 10:58 (after 2 days 16 hours)

[Quote]

У меня тут уже три аутвайта в архиве.))
Александр, спасибо, не нужно.
Через сколько лет, Вы говорили, трекер открытым станет? Вот тогда сам и вернусь.
 

admin ®

Gender: Male

Longevity: 7 years 7 months

Posts: 4811

Post 15-May-2016 02:25 (after 3 months 20 days)

[Quote]

Добавлена русская озвучка от den904
[Profile] [PM]
Display posts:    
Reply to topic

Current time is: 07-Apr 06:16

All times are UTC + 3



You cannot post new topics in this forum
You cannot reply to topics in this forum
You cannot edit your posts in this forum
You cannot delete your posts in this forum
You cannot vote in polls in this forum
You cannot attach files in this forum
You cannot download files in this forum