Бункер Палас-Отель / Bunker Palace Hotel (Энки Билал / Enki Bilal) [1989, Франция, фантастика] (ПД) (Sub Eng)

Reply to topic
DL-List and Torrent activity
Size:  1.33 GB   |    Registered:  3 years 2 months   |    Completed:  0 times

Seeder not seen: 3 years 1 month

 
   
 
 
 
Author Message

Susanin ®

Gender: Male

Longevity: 6 years 7 months

Posts: 855

Post 15-Jan-2016 21:16

[Quote]

Бункер Палас-Отель / Bunker Palace Hotel
Страна: Франция
Жанр: фантастика
Год выпуска: 1989
Продолжительность: 01:31:36
Перевод: Любительский (den904)
Cубтитры: русские
Режиссер: Энки Билал / Enki Bilal
В ролях: Жан-Луи Трентиньян, Кароль Буке, Мария Шнайдер, Роже Дюма, Янн Коллетт, Филипп Морье-Жану, Ганс Мейер, Бенуа Режан, Жан-Пьер Лео, Жезабель Амато.
Описание: №1
После некой глобальной катастрофы, случившейся на Земле, правящая верхушка прячется в бункере под названием «Палас-отель». Туда проникает представительница повстанцев Клара. Ее цель — уничтожить Президента и всю его клику. Но Президента давно не видели даже его приспешники. Тем не менее, Кларе удается встретиться с ним…
№2
Фильм по комиксам Энки Билала.
Повстанцы пытаются свергнуть диктатуру в фантастическом постапокалиптическом мире. Правительство пало, на улицах перестрелки. Уцелевшие члены кабинета пытаются скрыться в бункере под названием Палас-Отель, куда также проникает агент повстанцев с цель встретиться с президентом...
Доп. информация: Великолепный, стильный фильм. Жаль, что он мало известен и что не выходил на BD.

Знаете ли вы, что...

Отзывы

Рецензия

MediaInfo

Общее
Уникальный идентификатор : 186644015260723382612869831242076674023 (0x8C6A546D5291D01F813BDE21675457E7)
Полное имя : F:\Bunker Palace Hotel.1989.x264.DVDRip.Rus.Fre.kosmoaelita.mkv
Формат : Matroska
Версия формата : Version 4 / Version 2
Размер файла : 1,28 Гбайт
Продолжительность : 1 ч. 31 м.
Общий поток : 2001 Кбит/сек
Дата кодирования : UTC 2015-01-06 10:19:57
Программа кодирования : mkvmerge v7.4.0 ('Circles') 64bit built on Dec 12 2014 12:19:56
Библиотека кодирования : libebml v1.3.0 + libmatroska v1.4.1
DURATION : 01:24:58.233000000
NUMBER_OF_FRAMES : 621
NUMBER_OF_BYTES : 16122
_STATISTICS_WRITING_APP : mkvmerge v7.4.0 ('Circles') 64bit built on Dec 12 2014 12:19:56
_STATISTICS_WRITING_DATE_UTC : 2015-01-06 10:19:57
_STATISTICS_TAGS : BPS DURATION NUMBER_OF_FRAMES NUMBER_OF_BYTES
Видео
Идентификатор : 1
Формат : AVC
Формат/Информация : Advanced Video Codec
Профиль формата : High@L4.1
Параметр CABAC формата : Да
Параметр ReFrames формата : 10 кадров
Идентификатор кодека : V_MPEG4/ISO/AVC
Продолжительность : 1 ч. 31 м.
Битрейт : 1401 Кбит/сек
Ширина : 720 пикселей
Высота : 384 пикселя
Соотношение сторон : 1,85:1
Режим частоты кадров : Постоянный
Частота кадров : 25,000 кадров/сек
Цветовое пространство : YUV
Субдискретизация насыщенности : 4:2:0
Битовая глубина : 8 бит
Тип развёртки : Прогрессивная
Бит/(Пиксели*Кадры) : 0.203
Размер потока : 918 Мбайт (70%)
Библиотека кодирования : x264 core 130 r2273 b3065e6
Настройки программы : cabac=1 / ref=10 / deblock=1:-1:-1 / analyse=0x3:0x133 / me=umh / subme=11 / psy=1 / psy_rd=1.00:0.15 / mixed_ref=1 / me_range=24 / chroma_me=1 / trellis=2 / 8x8dct=1 / cqm=0 / deadzone=21,11 / fast_pskip=1 / chroma_qp_offset=-3 / threads=12 / lookahead_threads=3 / sliced_threads=0 / nr=0 / decimate=1 / interlaced=0 / bluray_compat=0 / constrained_intra=0 / bframes=10 / b_pyramid=2 / b_adapt=2 / b_bias=0 / direct=1 / weightb=1 / open_gop=0 / weightp=2 / keyint=210 / keyint_min=21 / scenecut=40 / intra_refresh=0 / rc_lookahead=80 / rc=crf / mbtree=1 / crf=19.0 / qcomp=0.65 / qpmin=0 / qpmax=69 / qpstep=4 / ip_ratio=1.25 / aq=1:1.00
Default : Да
Forced : Нет
Аудио #1
Идентификатор : 2
Формат : AC-3
Формат/Информация : Audio Coding 3
Расширение режима : CM (complete main)
Параметр Endianness формата : Big
Идентификатор кодека : A_AC3
Продолжительность : 1 ч. 31 м.
Вид битрейта : Постоянный
Битрейт : 112 Кбит/сек
Каналы : 2 канала
Расположение каналов : Front: L R
Частота : 48,0 КГц
Битовая глубина : 16 бит
Метод сжатия : С потерями
Размер потока : 73,4 Мбайт (6%)
Язык : Russian
Default : Да
Forced : Нет
Аудио #2
Идентификатор : 3
Формат : AC-3
Формат/Информация : Audio Coding 3
Расширение режима : CM (complete main)
Параметр Endianness формата : Big
Идентификатор кодека : A_AC3
Продолжительность : 1 ч. 31 м.
Вид битрейта : Постоянный
Битрейт : 448 Кбит/сек
Каналы : 6 каналов
Расположение каналов : Front: L C R, Side: L R, LFE
Частота : 48,0 КГц
Битовая глубина : 16 бит
Метод сжатия : С потерями
Размер потока : 294 Мбайт (22%)
Язык : French
Default : Нет
Forced : Нет
Текст
Идентификатор : 4
Формат : UTF-8
Идентификатор кодека : S_TEXT/UTF8
Идентификатор кодека/Информация : UTF-8 Plain Text
Язык : English
Default : Да
Forced : Нет

Скриншоты

Скринлист

cd Рип дополнительно залит на ОБЛАКО cd2
Bunker Palace Hotel.1989.mkv.torrent
Torrent: Registered [ 2017-09-26 20:35 ]

Download .torrent

Download

13 KB

Status: checked
Completed: 0 times
Size: 1.33 GB
 


Last edited by Susanin on 2017-09-26 20:35; edited 1 time in total
[Profile] [PM]

$Shorox

Gender: Male

Longevity: 7 years 11 months

Posts: 1887

Post 21-Jan-2016 03:59 (after 5 days)

[Quote]

Susanin,
Спасибо. Необычный фильм. Надо будет со временем ещё раз посмотреть, не всё понятно сразу.
[Profile] [PM]

Susanin ®

Gender: Male

Longevity: 6 years 7 months

Posts: 855

Post 21-Jan-2016 08:07 (after 4 hours)

[Quote]

$Shorox, ещё его же "Бессмертные" посмотрите, ещё необычнее.
[Profile] [PM]

Guest

Gender: Unknown

Post 09-Oct-2017 20:57 (after 1 year 8 months)

[Quote]

На облаке чья озвучка? Дена или старая? Кача пока нет.
 

Susanin ®

Gender: Male

Longevity: 6 years 7 months

Posts: 855

Post 10-Oct-2017 08:21 (after 11 hours)

[Quote]

Djon88SS, на облаке старая. Сегодня раздам поздно вечером.
[Profile] [PM]

Susanin ®

Gender: Male

Longevity: 6 years 7 months

Posts: 855

Post 10-Oct-2017 20:51 (after 12 hours)

[Quote]

Djon88SS, раздаю. Смогу только вечерами.
[Profile] [PM]

Susanin ®

Gender: Male

Longevity: 6 years 7 months

Posts: 855

Post 11-Oct-2017 19:23 (after 22 hours)

[Quote]

Djon88SS, я раздаю, качайте
[Profile] [PM]

Susanin ®

Gender: Male

Longevity: 6 years 7 months

Posts: 855

Post 13-Oct-2017 18:10 (after 1 day 22 hours)

[Quote]

Ну вот, я на раздаче - а никто не качает.
[Profile] [PM]

CROM@G

Gender: Male

Longevity: 5 years 2 months

Posts: 3437

Location: Прибалтика

Post 14-Oct-2017 09:00 (after 14 hours)

[Quote]

Susanin, А все кому надо видать уже скачали
[Profile] [PM]
Display posts:    
Reply to topic

Current time is: 05-Dec 09:00

All times are UTC + 3



You cannot post new topics in this forum
You cannot reply to topics in this forum
You cannot edit your posts in this forum
You cannot delete your posts in this forum
You cannot vote in polls in this forum
You cannot attach files in this forum
You can download files in this forum