Путешествие на Луну / A Trip to the Moon (Encyclopaedia Britannica Educational Corporation) [1957, США, документальный, фантастика, DVDRip] (АО : Трамвай фильм)

Reply to topic
DL-List and Torrent activity
Size:  117 MB   |    Registered:  3 years 7 months   |    Completed:  10 times

Seeders:

Username ULR UL DL UL speed DL speed
pompilius 0 0- 0- 0- 0-
shows data only for the current session
 
   
 
 
 
Author Message

Трамвай-фильм ®

Gender: Male

Longevity: 5 years

Posts: 1493

Location: Россия

Post 13-Jan-2016 22:31

[Quote]

Путешествие на Луну / A Trip to the Moon
Страна: США
Жанр: документальный, фантастика
Год выпуска: 1957
Продолжительность: 00:16:08
Перевод: Авторский (одноголосый) Трамвай фильм
Компания: Encyclopaedia Britannica Educational Corporation
Описание: Документальный фильм о том, как будет выглядеть полет на орбиту Луны
Качество видео: DVDRip
Формат видео: MKV
Видео: MPEG4 Video (H264), 720x480, 29.97fps, 806 Kbps
Аудио: AAC, 44100Hz, stereo, 128 Kbps (русс.)
Аудио 2: AAC, 44100Hz, stereo, 128 Kbps (англ.)

MediaInfo

Общее
Уникальный идентификатор : 183708867869304708581737558591266103614 (0x8A350A7CDF42B1628F2677F599E8213E)
Полное имя : E:\A Trip to the Moon (1957).mkv
Формат : Matroska
Версия формата : Version 4 / Version 2
Размер файла : 117 Мбайт
Продолжительность : 16 м.
Общий поток : 1016 Кбит/сек
Дата кодирования : UTC 2016-01-13 18:14:05
Программа кодирования : mkvmerge v7.1.0 ('Good Love') 32bit built on Jul 27 2014 12:59:18
Библиотека кодирования : libebml v1.3.0 + libmatroska v1.4.1
Видео
Идентификатор : 1
Формат : AVC
Формат/Информация : Advanced Video Codec
Профиль формата : Baseline@L3
Параметр CABAC формата : Нет
Параметр ReFrames формата : 1 кадр
Параметр GOP формата : M=1, N=25
Идентификатор кодека : V_MPEG4/ISO/AVC
Продолжительность : 16 м.
Битрейт : 806 Кбит/сек
Ширина : 720 пикселей
Высота : 480 пикселей
Соотношение сторон : 3:2
Режим частоты кадров : Постоянный
Частота кадров : 29,970 (29970/1000) кадров/сек
Частота кадров в оригинале : 29,000 кадров/сек
Стандарт вещания : NTSC
Цветовое пространство : YUV
Субдискретизация насыщенности : 4:2:0
Битовая глубина : 8 бит
Тип развёртки : Прогрессивная
Бит/(Пиксели*Кадры) : 0.078
Размер потока : 93,0 Мбайт (79%)
Default : Да
Forced : Нет
Аудио #1
Идентификатор : 2
Формат : AAC
Формат/Информация : Advanced Audio Codec
Профиль формата : LC
Идентификатор кодека : A_AAC
Продолжительность : 16 м.
Битрейт : 101 Кбит/сек
Каналы : 2 канала
Расположение каналов : Front: L R
Частота : 44,1 КГц
Частота кадров : 43,066 кадра/сек (1024 spf)
Метод сжатия : С потерями
Размер потока : 11,7 Мбайт (10%)
Default : Да
Forced : Нет
Аудио #2
Идентификатор : 3
Формат : AAC
Формат/Информация : Advanced Audio Codec
Профиль формата : LC
Идентификатор кодека : A_AAC
Продолжительность : 16 м.
Битрейт : 105 Кбит/сек
Каналы : 2 канала
Расположение каналов : Front: L R
Частота : 44,1 КГц
Частота кадров : 43,066 кадра/сек (1024 spf)
Метод сжатия : С потерями
Размер потока : 12,1 Мбайт (10%)
Default : Нет
Forced : Нет

Скриншот c названием фильма

Скриншоты



Скринлист

cd Рип дополнительно залит на ОБЛАКО cd2
A.Trip.1957.torrent
Torrent: Registered [ 2016-01-13 22:31 ]

Download .torrent

Download

18 KB

Status: checked
Completed: 10 times
Size: 117 MB
 


Last edited by Трамвай-фильм on 2019-01-27 20:58; edited 1 time in total
[Profile] [PM]

Dionisiy22

Gender: Unknown

Longevity: 1 year 6 months

Posts: 29

Post 27-Jan-2019 20:11 (after 3 years)

[Quote]

Ссылка на облако не работает
[Profile] [PM]

Трамвай-фильм ®

Gender: Male

Longevity: 5 years

Posts: 1493

Location: Россия

Post 27-Jan-2019 20:58 (after 47 minutes)

[Quote]

21496Ссылка на облако не работает
Да там объем сто метров, его и так стянуть можно за 3 минуты.
[Profile] [PM]

kosmoaelita2

Gender: Male

Longevity: 6 years 10 months

Posts: 743

Post 28-Jan-2019 00:25 (after 3 hours)

[Quote]

Исправил на облаке
[Profile] [PM]
Quick Reply

Name:

            
Heads necessary to send messages to enable JavaScript
Display posts:    
Reply to topic

Current time is: 20-Aug 11:25

All times are UTC + 3



You can post new topics in this forum
You can reply to topics in this forum
You cannot edit your posts in this forum
You cannot delete your posts in this forum
You cannot vote in polls in this forum
You cannot attach files in this forum
You can download files in this forum