Безбилетный пассажир (мини-сериал) / Blindpassasjer / The Stowaway (Stein-Roger Bull / Штейн Роджер Бал) [1978 г., Фантастика, триллер, DVDRip] ЛО (Сергей Синица), СТ (Il-Palasso sama)

Reply to topic
 
Author Message

Guest ®

Gender: Unknown

Post 22-Sep-2012 16:25

[Quote]

Безбилетный пассажир (мини-сериал) / Blindpassasjer / The Stowaway
Год выпуска: 1978
Страна: Норвегия, Norsk Rikskringkasting (NRK)
Жанр: Фантастика, триллер
Продолжительность: 01:48:40
Перевод: Профессиональный (одноголосый) Сергей Синица
Субтитры: Русские (Il-Palasso sama) - присутствует ненормативная лексика
Режиссер: Stein-Roger Bull / Штейн Роджер Бал
В ролях: Хенни Моан, Marit Østbye, Трини Ланд, Бьёрн Флоберг, Ола Б. Йоханнессен, Ole-Jørgen Nilsen, Erik Tandberg
Описание: Космический корабль Marco Polo возвращается из миссии с недавно обнаруженной планеты Rossum. В то время как пять членов команды находятся в глубоком сне, таинственная форма замечена одним из мониторов наблюдения. Пробужденная команда скоро обнаруживает, что один член экипажа был убит, и кое-что живет среди них в форме члена экипажа. Но кто это?
Качество: DVDRip
Формат: AVI
Видео: 512x384 25.00fps 750kbps
Аудио: 48000Hz stereo 192kbps
Видео: XviD, 735 кбит/с, 512x384 25.00fps
Аудио 1: Русский (MP3, 2 ch, 192 Кбит/с)
Аудио 2: Норвежский (MP3, 2 ch, 128 Кбит/с)
Субтитры : Русские (Il-Palasso sama)


Релиз

Рип найден в сети.
Озвучка - Сергей Синица
Субтитры - Il-Palasso sama
Для Украины: рип дополнительно залит в файлохранилище
Для удаления и добавления дорожек в mkv используйте бесплатную mkvmerge GUI 5.80

Дополнительно

слоган «A murder without a victim.»
Also Known As (AKA)
"Fripassageraren" Sweden
"Marco Polo" Norway

Рецензия

MediaInfo

Общее
Уникальный идентификатор : 224931438634495564420085907838673559246 (0xA9383824B3B3CBB9AAD3F3DED71F1ECE)
Полное имя : F:\Bezbiletnyj.passazhyr.1978.Xvid.DVDRip.mkv
Формат : Matroska
Версия формата : Version 2
Размер файла : 837 Мбайт
Продолжительность : 1 ч. 48 м.
Общий поток : 1077 Кбит/сек
Название фильма : Blindpassasjer 1978
Дата кодирования : UTC 2012-09-30 06:06:30
Программа кодирования : mkvmerge v5.8.0 ('No Sleep / Pillow') built on Sep 2 2012 15:37:04
Библиотека кодирования : libebml v1.2.3 + libmatroska v1.3.0
Видео
Идентификатор : 1
Формат : MPEG-4 Visual
Профиль формата : Advanced Simple@L5
Параметр BVOP формата : Да
Параметр QPel формата : Нет
Параметр GMC формата : Без точки перехода
Параметр матрицы формата : Выборочная
Идентификатор кодека : V_MS/VFW/FOURCC / XVID
Идентификатор кодека/Подсказка : XviD
Продолжительность : 1 ч. 48 м.
Битрейт : 735 Кбит/сек
Ширина : 512 пикселей
Высота : 384 пикселя
Соотношение сторон : 4:3
Режим частоты кадров : Постоянный
Частота кадров : 25,000 кадров/сек
Цветовое пространство : YUV
Субдискретизация насыщенности : 4:2:0
Битовая глубина : 8 бит
Тип развёртки : Прогрессивная
Метод сжатия : С потерями
Бит/(Пиксели*Кадры) : 0.150
Размер потока : 571 Мбайт (68%)
Библиотека кодирования : XviD 1.2.0.dev47 (UTC 2006-11-01)
Default : Да
Forced : Нет
Аудио #1
Идентификатор : 2
Формат : MPEG Audio
Версия формата : Version 1
Профиль формата : Layer 3
Режим : Joint stereo
Идентификатор кодека : A_MPEG/L3
Идентификатор кодека/Подсказка : MP3
Продолжительность : 1 ч. 48 м.
Вид битрейта : Постоянный
Битрейт : 192 Кбит/сек
Каналы : 2 канала
Частота : 48,0 КГц
Метод сжатия : С потерями
Размер потока : 149 Мбайт (18%)
Заголовок : Русский (Сергей Синица)
Язык : Russian
Default : Да
Forced : Нет
Аудио #2
Идентификатор : 3
Формат : MPEG Audio
Версия формата : Version 1
Профиль формата : Layer 3
Режим : Joint stereo
Расширение режима : MS Stereo
Идентификатор кодека : A_MPEG/L3
Идентификатор кодека/Подсказка : MP3
Продолжительность : 1 ч. 48 м.
Вид битрейта : Постоянный
Битрейт : 128 Кбит/сек
Каналы : 2 канала
Частота : 48,0 КГц
Метод сжатия : С потерями
Размер потока : 99,5 Мбайт (12%)
Библиотека кодирования : LAME3.97ЄЄЄЄЄЄЄЄЄЄЄЄ
Язык : Norwegian
Default : Нет
Forced : Нет
Текст #1
Идентификатор : 4
Формат : VobSub
Режим смешивания : zlib
Идентификатор кодека : S_VOBSUB
Идентификатор кодека/Информация : The same subtitle format used on DVDs
Заголовок : Русский (Il Palazzo-sama) VobSub
Язык : Russian
Default : Да
Forced : Нет
Текст #2
Идентификатор : 5
Формат : UTF-8
Идентификатор кодека : S_TEXT/UTF8
Идентификатор кодека/Информация : UTF-8 Plain Text
Заголовок : Русский (Il Palazzo-sama) srt
Язык : Russian
Default : Нет
Forced : Нет

Скриншоты


cd Рип дополнительно залит на ОБЛАКО cd2
 

admin

Gender: Male

Longevity: 7 years 2 months

Posts: 4723

Post 30-Sep-2012 07:54 (after 7 days)

[Quote]

Торрент перезалит.Субтитры подогнаны.
[Profile] [PM]

Guest ®

Gender: Unknown

Post 11-Apr-2014 21:38 (after 1 year 6 months)

[Quote]

Очень понравился.
 

Славянин ®

Gender: Unknown

Post 12-Apr-2014 10:15 (after 12 hours)

[Quote]

есть двд,картинка чуть получше,ну ты не отвечаешь,значит не надо,ладно не буду заходить сюда
 

Susanin

Gender: Male

Longevity: 5 years 7 months

Posts: 825

Post 28-Nov-2014 15:05 (after 7 months 16 days)

[Quote]

Как интееересснооо... А ведь "Чужой" выйдет только через год. А местами прям ну очень-очень похоже.
[Profile] [PM]
Quick Reply

Name:

            
Heads necessary to send messages to enable JavaScript
Display posts:    
Reply to topic

Current time is: 17-Nov 20:02

All times are UTC + 3



You cannot post new topics in this forum
You can reply to topics in this forum
You cannot edit your posts in this forum
You cannot delete your posts in this forum
You cannot vote in polls in this forum
You cannot attach files in this forum
You cannot download files in this forum