Компьютер в кроссовках / The Computer Wore Tennis Shoes (TV) (Пейтон Рид / Peyton Reed) [1995, США, фантастика, комедия, семейный, TVRip] (ПМ)

Reply to topic
 
Author Message

admin ®

Gender: Male

Longevity: 8 years

Posts: 4794

Post 03-Jan-2016 18:29

[Quote]

Компьютер в кроссовках / The Computer Wore Tennis Shoes (TV)
Страна: США, Walt Disney Television, ZM Productions
Жанр: фантастика, комедия, семейный
Год выпуска: 1995
Продолжительность: 01:31:00
Перевод: Профессиональный (многоголосый)
Режиссер: Пейтон Рид / Peyton Reed
В ролях: Kirk Cameron ... Dexter Riley
Larry Miller ... Dean Al Valentine
Jason Bernard ... Prof. Miles Quigley
Andrew Woodworth ... Will Rafferty
Anne Tremko ... Sarah Matthews
Matthew McCurley ... Norwood Gills
Jeff Maynard ... Gozin
Charles Lane ... Regent Yarborough
Paul Dooley ... Sen. Thatch
Dan Castellaneta ... Alan Winsdale
Dean Jones ... Dean Webster Carlson
Christin Hinojosa ... Penelope
Eric Schaeffer ... Rich Prentiss
Jeff Garlin ... Agent Reese
Eddie Deezen ... Agent Tucker
Описание: Римейк фильма 1969 года
Во время грозы происходит короткое замыкание, и симпатичный лоботряс Декстер Райли, пытающийся извлечь из памяти компьютера чужую курсовую работу, в одно мгновение становится гением, обладающим всей информацией суперкомпьютера нового поколения.
Грех не воспользоваться новым даром, и Декстер решает в первую очередь проучить заносчивых всезнаек-отличников, которые всегда относились к нему с презрением…

ФИЛЬМ ИЗ РУБРИКИ ДИСНЕЙ ПО ПЯТНИЦАМ
Качество: TVRip
Формат: MKV
Видео: x264, 1762 кбит/с, 720x528, 23.976 к/с
Аудио 1: Русский ПМ (AC3, 2 ch, 192 Кбит/с)
Аудио 2: Английский (AC3, 2 ch, 192 Кбит/с)
Работа над релизом:
Видеоряд найден в сети
За русскую дорожку благодарим хорошего человека под ником SuperDVD01
Синхронизация русской дорожки - kosmoaelita



Пример русского перевода

Дополнительно

возраст зрителям, достигшим 12 лет
Формат изображения: 1.33 : 1
Формат копии: 35 mm
Формат съёмок: 35 mm
Изображение: цветное
Язык: английский
Also Known As (AKA) Brazil O Computador de Tênis
Germany Dexter Riley - Total verkabelt und nichts begriffen
Spain Internauta por accidente
France Le cerveau artificiel
Hungary Komputer teniszcipőben
Sweden Datatrubbel
================================================
Для удаления,добавления и извлечения дорожек в mkv используйте бесплатную портативную mkvmerge GUI 7.1.0
Для присоединения потом дорожек к avi воспользуйтесь VirtualDubMod

Знаете ли вы, что...

Римейк одноименного фильма 1969 года

Отзывы

В середине 90-х несколько раз смотрел его в переводе Володарского по местному кабельному каналу.
Огромное спасибо за столь редкий фильм в наши дни
-------------------------------
Больше спасибо за фильм, очень давно его искал.
Тоже в детстве смотрел его в озвучке Володарского, если она у кого то завалялась, буду рад, если поделитесь.

MediaInfo

Общее
Уникальный идентификатор : 202281205474985984494400691979526339382 (0x982DF16DC35BC317A4AEEEBD82FBFB36)
Полное имя : F:\The Computer Wore Tennis Shoes 1995.x264.TVRip.Rus.kosmoaelita.mkv
Формат : Matroska
Версия формата : Version 4 / Version 2
Размер файла : 1,37 Гбайт
Продолжительность : 1 ч. 31 м.
Общий поток : 2148 Кбит/сек
Название фильма : The Computer Wore Tennis Shoes 1995
Дата кодирования : UTC 2016-01-03 13:52:20
Программа кодирования : mkvmerge v6.6.0 ('The Edge Of The In Between') built on Dec 1 2013 17:55:00
Библиотека кодирования : libebml v1.3.0 + libmatroska v1.4.1
DURATION : 01:31:00.032000000
NUMBER_OF_FRAMES : 170626
NUMBER_OF_BYTES : 131040768
_STATISTICS_WRITING_APP : mkvmerge v7.8.0 ('River Man') 32bit built on Mar 27 2015 16:18:02
_STATISTICS_WRITING_DATE_UTC : 2016-01-03 07:06:54
_STATISTICS_TAGS : BPS DURATION NUMBER_OF_FRAMES NUMBER_OF_BYTES
Видео
Идентификатор : 1
Формат : AVC
Формат/Информация : Advanced Video Codec
Профиль формата : High@L4.1
Параметр CABAC формата : Да
Параметр ReFrames формата : 8 кадров
Идентификатор кодека : V_MPEG4/ISO/AVC
Продолжительность : 1 ч. 31 м.
Битрейт : 1762 Кбит/сек
Ширина : 720 пикселей
Высота : 528 пикселей
Соотношение сторон : 4:3
Режим частоты кадров : Постоянный
Частота кадров : 23,976 кадра/сек
Цветовое пространство : YUV
Субдискретизация насыщенности : 4:2:0
Битовая глубина : 8 бит
Тип развёртки : Прогрессивная
Бит/(Пиксели*Кадры) : 0.193
Размер потока : 1,09 Гбайт (80%)
Заголовок : kosmoaelita
Библиотека кодирования : x264 core 130 r2273 b3065e6
Настройки программы : cabac=1 / ref=8 / deblock=1:-2:-2 / analyse=0x3:0x133 / me=umh / subme=10 / psy=1 / psy_rd=0.99:0.14 / mixed_ref=1 / me_range=24 / chroma_me=1 / trellis=2 / 8x8dct=1 / cqm=0 / deadzone=21,11 / fast_pskip=1 / chroma_qp_offset=-3 / threads=6 / lookahead_threads=1 / sliced_threads=0 / nr=0 / decimate=1 / interlaced=0 / bluray_compat=0 / constrained_intra=0 / bframes=8 / b_pyramid=2 / b_adapt=2 / b_bias=0 / direct=3 / weightb=1 / open_gop=0 / weightp=2 / keyint=210 / keyint_min=21 / scenecut=40 / intra_refresh=0 / rc_lookahead=80 / rc=2pass / mbtree=1 / bitrate=1762 / ratetol=1.0 / qcomp=0.65 / qpmin=0 / qpmax=69 / qpstep=4 / cplxblur=20.0 / qblur=0.5 / ip_ratio=1.25 / aq=1:0.90
Default : Да
Forced : Нет
Аудио #1
Идентификатор : 3
Формат : AC-3
Формат/Информация : Audio Coding 3
Расширение режима : CM (complete main)
Параметр Endianness формата : Big
Идентификатор кодека : A_AC3
Продолжительность : 1 ч. 31 м.
Вид битрейта : Постоянный
Битрейт : 192 Кбит/сек
Каналы : 2 канала
Расположение каналов : Front: L R
Частота : 48,0 КГц
Битовая глубина : 16 бит
Метод сжатия : С потерями
Размер потока : 125 Мбайт (9%)
Заголовок : Русский ПМ (с TV) - плохое качество - перегруз, треск
Язык : Russian
Default : Да
Forced : Нет
Аудио #2
Идентификатор : 4
Формат : AC-3
Формат/Информация : Audio Coding 3
Расширение режима : CM (complete main)
Параметр Endianness формата : Big
Идентификатор кодека : A_AC3
Продолжительность : 1 ч. 31 м.
Вид битрейта : Постоянный
Битрейт : 192 Кбит/сек
Каналы : 2 канала
Расположение каналов : Front: L R
Частота : 48,0 КГц
Битовая глубина : 16 бит
Метод сжатия : С потерями
Размер потока : 125 Мбайт (9%)
Язык : English
Default : Нет
Forced : Нет
Текст
Идентификатор : 2
Формат : UTF-8
Идентификатор кодека : S_TEXT/UTF8
Идентификатор кодека/Информация : UTF-8 Plain Text
Заголовок : Форс рекламка
Default : Да
Forced : Нет

Скриншоты









Скринлист

cd Рип дополнительно залит на ОБЛАКО cd2


Last edited by admin on 2016-01-03 18:43; edited 3 times in total
[Profile] [PM]

admin ®

Gender: Male

Longevity: 8 years

Posts: 4794

Post 03-Jan-2016 18:31 (after 1 minute)

[Quote]

Римейк фильма 1969г
http://kosmoaelita.com/viewtopic.php?t=1363
[Profile] [PM]
Display posts:    
Reply to topic

Current time is: 21-Sep 11:36

All times are UTC + 3



You cannot post new topics in this forum
You cannot reply to topics in this forum
You cannot edit your posts in this forum
You cannot delete your posts in this forum
You cannot vote in polls in this forum
You cannot attach files in this forum
You cannot download files in this forum