Черная планета / Темная планета / Dark Planet (Albert Magnoli / Альберт Магноли) [1997, США, фантастика, WEB-DL-1080p] ПМ (с VHS)

Reply to topic
 
Author Message

admin ®

Gender: Male

Longevity: 7 years 5 months

Posts: 4813

Post 02-Jan-2016 13:10

[Quote]

Черная планета / Темная планета / Dark Planet
Страна: США, EGM Film International, Ed Ancoats Inc.
Жанр: фантастика
Год выпуска: 1997
Продолжительность: 01:36:38
Перевод: Профессиональный (многоголосый) с VHS
Режиссер: Albert Magnoli / Альберт Магноли
В ролях:
Paul Mercurio ... Anson Hawke
Harley Jane Kozak ... Col. Liz Brendan, Rebel
Michael York ... Capt. Winter, Alpha
Maria Ford ... Helmsperson Salera, Alpha
Ed O'Ross ... Lt. Byron, Rebel
Phil Morris ... Dr. Fletcher, Rebel
Amy Beth Cohn ... Cassian, Hawke's Crew Mate
Blake Boyd ... First Mate
Rick Johnson ... Helmsman
Sal Landi ... Weapons Officer
Ed Evanko ... Alpha Male 1 (as Edward Evanko)
Rod Arrants ... Alpha Male 2
Karen Mayo-Chandler ... Alpha Female
John Beck ... Rebel General
Mark Folger ... Pressman
Описание: В XXVII веке, население Земли, истощённое шестью мировыми войнами, оказалось расколото на два лагеря: натуральных людей- Альфа и полулюдей-полукомпьютеров - Мятежников.
Внезапно, конфликтующие стороны оказываются перед общей опасностью тотального уничтожения и снаряжают совместную экспедицию сквозь чёрную дыру, к планете, возможно пригодной для переселения. Но провести звездолёт за горизонт событий способен единственный, случайно выживший после подобного путешествия пилот, "настоящий мачо", томящийся в психиатрической клинике. Амбиции каждой из "рас" приводят экспедицию на грань срыва....

Качество: WEB-DL-1080p
Формат: MKV
Видео: x264, 9332 кбит/с, 1920x1080, 24 к/с
Аудио 1: Русский ПМ (с VHS)(AC3, 2 ch, 192 Кбит/с)
Аудио 2: Английский (AC3, 2 ch, 224 Кбит/с)
Аудио 3: Немецкий Дубляж(AC3, 2 ch, 192 Кбит/с)
Работа над релизом:
Видеоряд найден на rarbg2018.org
Синхронизация русской дорожки - kosmoaelita



Пример руссого перевода

Дополнительно

рейтинг MPAA лицам до 17 лет обязательно присутствие взрослого
Производство 24 сентября 1996 — 13 октября 1996
Изображение: цветное
Язык: английский
Also Known As (AKA) Greece (video title) Skoteinos planitis
Portugal Destruição iminente
================================================
Для удаления,добавления и извлечения дорожек в mkv используйте бесплатную портативную mkvmerge GUI 7.1.0
Для присоединения потом дорожек к avi воспользуйтесь VirtualDubMod

Знаете ли вы, что...

Я как то смотрел пиндосовскую мало бюджетку, там долго не думая, вспышки газа из дула при выстреле, рисовали отдельным мультяшным фоном... П ходу автоматы были пластмассовые... или на холостые денег не было)
Поэтому АК в 27 веке меня не пугает... Хорошо что хоть на него денег хватило...
----------------------------------------------
Фильм странный! С одной стороны сам сюжет интересен (вкратце -за мир во всём мире, за дружбу народов, за ясное небо над головой), но блин, всё меркнет перед явно очень низким бюджетом сия произведения, да и откровенным идиотизмом человека который создавал спецэффекты! Засунуть на косм.корабль солдат с АК-47 в 2680 году, откровенно мультяшные спецэффекты кораблей, да и самого космоса вызывают хохот и разочарование!
Вообщем, очередная Американская лабуда, да ещё к тому же по дешёвке! 4/10
--------------------------------------------------------------------
Не рассчитывайте на шедевр, фильм не тянет на "шедевральность".
Но если хочется посмотреть что то из фантастики близкой к "старому" 1970х-1990х годов вполне можно посмотреть. (Личное мнение)
Меня этот фильм больше заинтересовал как память о детстве и детском восприятии того немного что было в более менее приемлемом качестве.
------------------------------------
Между прочим, полковника Rebel-ов весьма внушительно играет Harley Jane Kozak, известная по Stargate SG-1, а пилота+провидицу Альф симпатичная Maria Ford, названная Квентином Тарантино "любимой актрисой фильмов класса B". © Кай

Отзывы

За фильм, конечно, спасибо. Но мне не понравился. "Манная каша", которую почему то назвали фантастикой. Когда увидел год выпуска-удивился, много фильмов сделали раньше и намного интересней, их и оставлю, а этот-нет.
P/S ИМХО- это НЕ классика.
-------------------------------------------------
Нудный и неприятный фильм, но добавляю в "Будущие закачки", потому что скачать его хочу для памяти - лет 15 назад смотрела по телеку, тогда крутили. Запомнились слова "Альфы" и "мятежники".
--------------------------------------
Большое спасибо за этот фильм!!! Очень давно его искала!!! Любителей современных спецэффектов он, конечно, не заинтересует, но в нём есть душа...
-----------------------------------------
Обычный фильмец категории Б. Наивный, картонный. Один раз посмотреть можно.
------------------------------------------
как ни странно - вполне прилично смотрится и сейчас ! сюжет интересный и актёрский состав очень даже неплохой . анимация- для своего времени - тоже . смотрится напряженно и времени не жалко - классика.....
не для школаты - есть о чем подуматть и сейчас - нужно только увидеть - люди и в космосе со своими глупыми заскоками....пока жывы конечно.......
--------------------------------------------
крепкий психологический триллер с неожиданным концом, мне понравился, все по делу.
чувствуется налет малобюджетности, но фильм интересный в принципе
-----------------------------------------------
Харли Джейн Козак моя слабость со времен Санта-Барбары
спасибо мегареспект...
Ох как я с вами согласен.. обожаю ее,жаль что фильмов маловато с ее участием((

MediaInfo

Общее
Уникальный идентификатор : 179899931592398180536410268284812364606 (0x8757776E29AFB3D09BC9959962B98B3E)
Полное имя : N:\BD-DISC\Dark.Planet.1997.1080p.AMZN.WEBRip.DDP2.0.x264-BLUTONiUM\Dark Planet 1997.x264.WEB-DL.1080p.Rus.kosmoaelita.mkv
Формат : Matroska
Версия формата : Version 4
Размер файла : 6,85 Гбайт
Продолжительность : 1 ч. 36 м.
Общий поток : 10,1 Мбит/сек
Название фильма : Dark Planet / Чёрная планета / 1997 / kosmoaelita
Дата кодирования : UTC 2019-05-22 23:02:00
Программа кодирования : mkvmerge v6.6.0 ('The Edge Of The In Between') built on Dec 1 2013 17:55:00
Библиотека кодирования : libebml v1.3.0 + libmatroska v1.4.1
Attachments : poster Dark-Planet.jpg
Видео
Идентификатор : 1
Формат : AVC
Формат/Информация : Advanced Video Codec
Профиль формата : High@L4
Настройки формата : CABAC / 4 Ref Frames
Параметр CABAC формата : Да
Параметр RefFrames формата : 4 кадра
Идентификатор кодека : V_MPEG4/ISO/AVC
Продолжительность : 1 ч. 36 м.
Вид битрейта : Постоянный
Битрейт : 9332 Кбит/сек
Номинальный битрейт : 10000 Кбит/сек
Ширина : 1920 пикселей
Высота : 1080 пикселей
Соотношение сторон : 16:9
Режим частоты кадров : Постоянный
Частота кадров : 24,000 кадра/сек
Цветовое пространство : YUV
Субдискретизация насыщенности : 4:2:0
Битовая глубина : 8 бит
Тип развёртки : Прогрессивная
Бит/(Пиксели*Кадры) : 0.188
Размер потока : 6,30 Гбайт (92%)
Заголовок : http://kosmoaelita.com/viewtopic.php?t=1966
Default : Да
Forced : Нет
Цветовой диапазон : Limited
Основные цвета : BT.709
Характеристики трансфера : BT.709
Коэффициенты матрицы : BT.709
Аудио #1
Идентификатор : 2
Формат : AC-3
Формат/Информация : Audio Coding 3
Коммерческое название : Dolby Digital
Идентификатор кодека : A_AC3
Продолжительность : 1 ч. 36 м.
Вид битрейта : Постоянный
Битрейт : 192 Кбит/сек
Каналы : 2 канала
Channel layout : L R
Частота : 48,0 КГц
Частота кадров : 31,250 кадров/сек (1536 SPF)
Битовая глубина : 16 бит
Метод сжатия : С потерями
Размер потока : 133 Мбайт (2%)
Заголовок : Русский ПМ (с VHS)
Язык : Russian
ServiceKind/String : Complete Main
Default : Да
Forced : Нет
Аудио #2
Идентификатор : 3
Формат : E-AC-3
Формат/Информация : Enhanced AC-3
Коммерческое название : Dolby Digital Plus
Идентификатор кодека : A_EAC3
Продолжительность : 1 ч. 36 м.
Вид битрейта : Постоянный
Битрейт : 224 Кбит/сек
Каналы : 2 канала
Channel layout : L R
Частота : 48,0 КГц
Частота кадров : 31,250 кадров/сек (1536 SPF)
Метод сжатия : С потерями
Размер потока : 155 Мбайт (2%)
Заголовок : English
Язык : English
ServiceKind/String : Complete Main
Default : Нет
Forced : Нет
Аудио #3
Идентификатор : 4
Формат : AC-3
Формат/Информация : Audio Coding 3
Коммерческое название : Dolby Digital
Идентификатор кодека : A_AC3
Продолжительность : 1 ч. 36 м.
Вид битрейта : Постоянный
Битрейт : 192 Кбит/сек
Каналы : 2 канала
Channel layout : L R
Частота : 48,0 КГц
Частота кадров : 31,250 кадров/сек (1536 SPF)
Битовая глубина : 16 бит
Метод сжатия : С потерями
Размер потока : 133 Мбайт (2%)
Язык : German
ServiceKind/String : Complete Main
Default : Нет
Forced : Нет
Текст #1
Идентификатор : 5
Формат : UTF-8
Идентификатор кодека : S_TEXT/UTF8
Идентификатор кодека/Информация : UTF-8 Plain Text
Default : Да
Forced : Нет
Текст #2
Идентификатор : 6
Формат : UTF-8
Идентификатор кодека : S_TEXT/UTF8
Идентификатор кодека/Информация : UTF-8 Plain Text
Заголовок : English [SDH]
Язык : English
Default : Нет
Forced : Нет

Скриншоты








Скринлист

cd Рип дополнительно залит на ОБЛАКО cd2
[Profile] [PM]

Guest

Gender: Unknown

Post 03-Jan-2016 04:48 (after 15 hours)

[Quote]

Давно искал, поскольку видел по телевизору. Однако название на трекере, так и не смогли подсказать. Что ж, посмотрю теперь.
 

Guest

Gender: Unknown

Longevity: 50 years

Post 23-May-2019 06:38 (after 3 years 4 months)

[Quote]

Замена на WEB-DL-1080p
http://screenshotcomparison.com/comparison/432

[Profile] [PM]
Display posts:    
Reply to topic

Current time is: 26-Feb 12:41

All times are UTC + 3



You cannot post new topics in this forum
You cannot reply to topics in this forum
You cannot edit your posts in this forum
You cannot delete your posts in this forum
You cannot vote in polls in this forum
You cannot attach files in this forum
You cannot download files in this forum