Young Warriors of Koguryo / 고구려의 젊은 무사들 제 (Серии: 1-7 из 7) [КНДР, приключения, фантастика, фэнтази, TVRip] (БП : северокорейский)

Ответить на тему
 
Автор Сообщение

Faer ®

Пол: Мужской

Стаж: 3 года 11 месяцев

Сообщений: 337

Откуда: Сербия

Создавать темы 22-Дек-2015 09:32

[Цитировать]

Young Warriors of Koguryo / 고구려의 젊은 무사들 제
Страна: КНДР
Жанр: приключения, фантастика, фэнтази
Год выпуска: Неизвестно
Продолжительность: 7 х 00:25:00
Перевод: Отсутствует _ северокорейский
Cубтитры: нет
Режиссер: Неизвестно
Описание: This is a North Korean animation, based on battles in an ancient time in Korea. There's lots of martial arts and sword fighting action. It was originally aired on KCTV (Korean Central Television), which is North Korea's one and only TV station. It's usually where they show all their pro-NK propaganda, but in this case it appears to have something to do with an ancient war in Korea (before there was a North and a South). While it only has 7 episodes, this animated series features swords, martial arts, stealthy ninjas/assassins, superhuman strength and speed, and in general completely awesome fight scenes.
Качество видео: TVRip
Видео: AVC1, 480x360, 4:3, 30fps, 387 Кбит/с
Аудио: AAC, 44,1 КГц, 96,0 Кбит/с, стерео

MediaInfo

Общее
Полное имя : F:\Архив\Коллекция\고구려의 젊은 무사들 제\고구려의 젊은 무사들 제2부 아버지와 아들.mp4
Формат : MPEG-4
Профиль формата : Base Media / Version 2
Идентификатор кодека : mp42
Размер файла : 95,2 Мбайт
Продолжительность : 27 м.
Режим общего битрейта : Переменный
Общий поток : 486 Кбит/сек
Дата кодирования : UTC 2014-06-17 10:31:32
Дата пометки : UTC 2014-06-17 10:31:32
gsst : 0
gstd : 1644065
gssd : BADC29643
gshh : r3---sn-n8v7sner.googlevideo.com
Видео
Идентификатор : 1
Формат : AVC
Формат/Информация : Advanced Video Codec
Профиль формата : Baseline@L3.0
Параметр CABAC формата : Нет
Параметр ReFrames формата : 1 кадр
Идентификатор кодека : avc1
Идентификатор кодека/Информация : Advanced Video Coding
Продолжительность : 27 м.
Битрейт : 387 Кбит/сек
Максимальный битрейт : 1434 Кбит/сек
Ширина : 480 пикселей
Высота : 360 пикселей
Соотношение сторон : 4:3
Режим частоты кадров : Постоянный
Частота кадров : 30,000 кадров/сек
Цветовое пространство : YUV
Субдискретизация насыщенности : 4:2:0
Битовая глубина : 8 бит
Тип развёртки : Прогрессивная
Бит/(Пиксели*Кадры) : 0.075
Размер потока : 75,8 Мбайт (80%)
Дата пометки : UTC 2014-06-17 10:31:44
Аудио
Идентификатор : 2
Формат : AAC
Формат/Информация : Advanced Audio Codec
Профиль формата : LC
Идентификатор кодека : 40
Продолжительность : 27 м.
Вид битрейта : Переменный
Битрейт : 96,0 Кбит/сек
Максимальный битрейт : 101 Кбит/сек
Каналы : 2 канала
Расположение каналов : Front: L R
Частота : 44,1 КГц
Метод сжатия : С потерями
Размер потока : 18,8 Мбайт (20%)
Заголовок : IsoMedia File Produced by Google, 5-11-2011
Дата кодирования : UTC 2014-06-17 10:31:40
Дата пометки : UTC 2014-06-17 10:31:44

Скриншоты


[Профиль] [ЛС]

Faer ®

Пол: Мужской

Стаж: 3 года 11 месяцев

Сообщений: 337

Откуда: Сербия

Создавать темы 22-Дек-2015 09:51 (спустя 19 минут)

[Цитировать]

Перевода нет, и не предвидится. Хорошо что качество записи лучше Белки и Ёжика.
Немного о анимации Северной Кореи.
Вообще, в СК, вопреки стереотипам, делаются собственные мультфильмы, и даже весьма успешные. Например "Заколдованная гора" и "Королева Ласточек" (оба мульта имеют дубляж, ищите ВК и на рутрекере). Экспериментировали в СК и с кукольной анимацией, и с 3Д/псевдо 3Д, но большую часть анимации всё-таки делали в стиле советских мультиков. И лишь в новом творчестве (2005+) заметно постепенно возрастающее влияние "упрощённой" анимации: более яркой, более современной, и более лёгкой в создании.
Примеры.
Кукольная

Псевдо 3Д
Для памяти: скачать северокорейский детский мульт Rubber Ball / 별남이와 고무공.
[Профиль] [ЛС]

Трамвай-фильм

Пол: Мужской

Стаж: 4 года 4 месяца

Сообщений: 1346

Откуда: Россия

Создавать темы 22-Дек-2015 22:26 (спустя 12 часов)

[Цитировать]

У них классный мульт про бомбу есть, выдержанный в стилистике советских короткометражек 1950-х
[Профиль] [ЛС]

Faer ®

Пол: Мужской

Стаж: 3 года 11 месяцев

Сообщений: 337

Откуда: Сербия

Создавать темы 22-Дек-2015 22:59 (спустя 32 минуты)

[Цитировать]

12615У них классный мульт про бомбу есть, выдержанный в стилистике советских короткометражек 1950-х
Если дадите название, то попробую вытащить (хоть и без перевода).
[Профиль] [ЛС]

Трамвай-фильм

Пол: Мужской

Стаж: 4 года 4 месяца

Сообщений: 1346

Откуда: Россия

Создавать темы 22-Дек-2015 23:04 (спустя 5 минут)

[Цитировать]

[Профиль] [ЛС]

Трамвай-фильм

Пол: Мужской

Стаж: 4 года 4 месяца

Сообщений: 1346

Откуда: Россия

Создавать темы 22-Дек-2015 23:10 (спустя 6 минут)

[Цитировать]

Кстати в тему, не знаете где можно найти ДВД "wonder of frontiers" (Super Titan 15 , 1983г)
по описанию на нее есть англ. дубляж
http://www.imdb.com/title/tt1996392/?ref_=fn_al_tt_1
.
[Профиль] [ЛС]

Трамвай-фильм

Пол: Мужской

Стаж: 4 года 4 месяца

Сообщений: 1346

Откуда: Россия

Создавать темы 26-Дек-2015 19:05 (спустя 3 дня)

[Цитировать]

к слову, прорисовка тут отличная
[Профиль] [ЛС]
Показать сообщения:    
Ответить на тему

Текущее время: 16-Дек 09:44

Часовой пояс: UTC + 3:30



Вы не можете начинать темы
Вы не можете отвечать на сообщения
Вы не можете редактировать свои сообщения
Вы не можете удалять свои сообщения
Вы не можете голосовать в опросах
Вы не можете прикреплять файлы к сообщениям
Вы можете скачивать файлы