Миссия - Марс / Конечная остановка - Марс / Mission Mars / Endstation Mars (Николас Уэбстер / Nicholas Webster) [1968 г., Фантастика, приключения, DVDRip (VHS) ] ЛО (Андрей Бессонов), СТ (В.Овецкий)

Reply to topic
 
Author Message

Guest ®

Gender: Unknown

Post 22-Sep-2012 09:14

[Quote]

Миссия - Марс / Конечная остановка - Марс / Mission Mars / Endstation Mars
Год выпуска: 1968
Страна: США, Sagittarius Productions
Жанр: Фантастика, приключения
Продолжительность: 1:25:13
Перевод: Любительский (одноголосый) Андрей Бессонов
Режиссер: Николас Уэбстер / Nicholas Webster
В ролях: Дэррен МакГэвин, Ник Адамс, Джордж Де Фриз, Хезер Хьюит, Ширли Паркер, Билл Келли, Ральф Миллер, Арт Баркер
Описание: Трое космонавтов посланы на Марс в целях исследования планеты, по прибытии их встречают местные жители.
Качество: DVDRip (VHS)
Формат: MKV
Видео: x264, 1416 кбит/с, 720x544 crf=20
Аудио 1: Русский (МР3, 2 ch, 128 Кбит/с)
Аудио 2: Английский (AC3, 2 ch, 192 Кбит/с)
Аудио 3: Французский (AC3, 2 ch, 224 Кбит/с)
Субтитры : Русские (В.Овецкий)

Релиз

Рип с ДВД (трансфер с VHS) - sasha20072007
Русская озвучка - Андрей Бессонов
Автор русского текста: Виталий Овецкий
Сравнение с рутрекером
Для Украины: рип и оригинальный ДВД дополнительно залиты в файлохранилище
Для удаления и добавления дорожек в mkv используйте бесплатную mkvmerge GUI 5.80

Дополнительно

Also Known As (AKA)
Endstation Mars West Germany
Opération planète Mars France (video title)

Рецензия

MediaInfo

Общее
Уникальный идентификатор : 214788823093785778382985136204920340574 (0xA196D296AC859DF2A413AC99C01F405E)
Полное имя : F:\Missija.Mars.1968.x264.DVDRip.sasha20072007.mkv
Формат : Matroska
Версия формата : Version 2
Размер файла : 1,19 Гбайт
Продолжительность : 1 ч. 25 м.
Общий поток : 2000 Кбит/сек
Название фильма : Mission Mars / 1968 / rip by sasha20072007 (2012-09-28)
Дата кодирования : UTC 2012-09-29 09:24:03
Программа кодирования : mkvmerge v5.8.0 ('No Sleep / Pillow') built on Sep 2 2012 15:37:04
Библиотека кодирования : libebml v1.2.3 + libmatroska v1.3.0
Attachment : Yes / Yes / Yes / Yes
Видео
Идентификатор : 1
Формат : AVC
Формат/Информация : Advanced Video Codec
Профиль формата : High@L4.1
Параметр CABAC формата : Да
Параметр ReFrames формата : 8 кадров
Идентификатор кодека : V_MPEG4/ISO/AVC
Битрейт : 1416 Кбит/сек
Ширина : 720 пикселей
Высота : 544 пикселя
Соотношение сторон : 4:3
Режим частоты кадров : Переменный
Частота кадров в оригинале : 23,976 кадра/сек
Цветовое пространство : YUV
Субдискретизация насыщенности : 4:2:0
Битовая глубина : 8 бит
Тип развёртки : Прогрессивная
Библиотека кодирования : x264 core 125 r2208 d9d2288
Настройки программы : cabac=1 / ref=8 / deblock=1:-1:0 / analyse=0x3:0x133 / me=umh / subme=10 / psy=1 / psy_rd=1.00:0.15 / mixed_ref=1 / me_range=24 / chroma_me=1 / trellis=2 / 8x8dct=1 / cqm=0 / deadzone=21,11 / fast_pskip=1 / chroma_qp_offset=-3 / threads=4 / lookahead_threads=1 / sliced_threads=0 / nr=0 / decimate=1 / interlaced=0 / bluray_compat=0 / constrained_intra=0 / bframes=8 / b_pyramid=2 / b_adapt=2 / b_bias=0 / direct=1 / weightb=1 / open_gop=0 / weightp=2 / keyint=220 / keyint_min=22 / scenecut=40 / intra_refresh=0 / rc_lookahead=60 / rc=crf / mbtree=1 / crf=20.0 / qcomp=0.60 / qpmin=0 / qpmax=69 / qpstep=4 / vbv_maxrate=17500 / vbv_bufsize=14000 / crf_max=0.0 / nal_hrd=none / ip_ratio=1.27 / aq=1:0.80
Default : Да
Forced : Нет
Аудио #1
Идентификатор : 2
Формат : MPEG Audio
Версия формата : Version 1
Профиль формата : Layer 3
Идентификатор кодека : A_MPEG/L3
Идентификатор кодека/Подсказка : MP3
Продолжительность : 1 ч. 25 м.
Вид битрейта : Постоянный
Битрейт : 128 Кбит/сек
Каналы : 2 канала
Частота : 44,1 КГц
Метод сжатия : С потерями
Размер потока : 78,0 Мбайт (6%)
Заголовок : Русский (А.Бессонов)
Язык : Russian
Default : Да
Forced : Нет
Аудио #2
Идентификатор : 3
Формат : AC-3
Формат/Информация : Audio Coding 3
Расширение режима : CM (complete main)
Параметр Endianness формата : Big
Идентификатор кодека : A_AC3
Продолжительность : 1 ч. 25 м.
Вид битрейта : Постоянный
Битрейт : 192 Кбит/сек
Каналы : 2 канала
Расположение каналов : Front: L R
Частота : 48,0 КГц
Битовая глубина : 16 бит
Метод сжатия : С потерями
Размер потока : 117 Мбайт (10%)
Язык : English
Default : Нет
Forced : Нет
Аудио #3
Идентификатор : 4
Формат : AC-3
Формат/Информация : Audio Coding 3
Расширение режима : CM (complete main)
Параметр Endianness формата : Big
Идентификатор кодека : A_AC3
Продолжительность : 1 ч. 25 м.
Вид битрейта : Постоянный
Битрейт : 224 Кбит/сек
Каналы : 2 канала
Расположение каналов : Front: L R
Частота : 48,0 КГц
Битовая глубина : 16 бит
Метод сжатия : С потерями
Размер потока : 137 Мбайт (11%)
Язык : French
Default : Нет
Forced : Нет
Текст
Идентификатор : 5
Формат : UTF-8
Идентификатор кодека : S_TEXT/UTF8
Идентификатор кодека/Информация : UTF-8 Plain Text
Заголовок : Русский (В.Овецкий)
Язык : Russian
Default : Да
Forced : Нет

Скриншоты



cd Рип дополнительно залит на mail.ru cd2
 

admin

Gender: Male

Longevity: 7 years

Posts: 4725

Location: Україна

Post 29-Sep-2012 13:06 (after 7 days)

[Quote]

Торрент перезалит
[Profile] [PM]
Display posts:    
Reply to topic

Current time is: 18-Sep 08:05

All times are UTC + 3



You cannot post new topics in this forum
You cannot reply to topics in this forum
You cannot edit your posts in this forum
You cannot delete your posts in this forum
You cannot vote in polls in this forum
You cannot attach files in this forum
You cannot download files in this forum