Пришелец / The Stranger / Stranded in Space (Lee H. Katzin / Ли Х. Катцин) [1973, США, Фантастика, VHSRip] ЛО (den904), СТ (kosmoaelita-karlivanovich)

Ответить на тему
 
Автор Сообщение

admin ®

Пол: Мужской

Стаж: 6 лет 2 месяца

Сообщений: 4731

Откуда: Україна

Создавать темы 16-Дек-2015 04:21

[Цитировать]

Пришелец / The Stranger / Stranded in Space
Страна: США, Bing Crosby Productions
Жанр: Фантастика
Год выпуска: 1973
Продолжительность: 01:33:45
Перевод: ЛО den904 по субтитрам от kosmoaelita-karlivanovich
Режиссер: Lee H. Katzin / Ли Х. Катцин
В ролях:
Glenn Corbett ... Neil Stryker
Cameron Mitchell ... George Benedict
Sharon Acker ... Dr. Bettina Cooke
Lew Ayres ... Prof. Dylan MacAuley
George Coulouris ... Max Greene
Steve Franken ... Henry Maitland
Dean Jagger ... Carl Webster
Tim O'Connor ... Dr. Revere
Jerry Douglas ... Steve Perry
Arch Whiting ... Mike Frome
H.M. Wynant ... Eric Stoner
William Bryant ... Truck Driver
Virginia Gregg ... Ward E Administrator
Steven Marlo ... Guard
Ben Wright ... Doctor
Описание: Выживший в космической экспедиции астронавт Нил Страйкер попадает на планету, совершенно идентичную Земле, но с тремя лунами в небе, где царит специфический социальный строй "Совершенного Порядка" по типу Оруэлла...
Пилотная полнометражка сериала, который так и не увидел продолжения

A mix between "Journey to the Far Side of the Sun" and "The Monitors".
Never released on DVD.
This was a failed TV pilot for what would have been an interesting show that never took off.
Produced by Bing Crosby Production Company
TV series pilot (series never launched). After a freak mishap, an astronaut finds himself on an almost precise copy of Earth (right down to the Plymouth cars). However, this planet has three moons, and is run by an Orwellian government called The Perfect Order, who seek out and crush all dissidents either by outright assassination or by having them treated at "Ward E." Hunted and alone, the story traces the astronaut's efforts to evade capture and return home.
https://en.wikipedia.org/wiki/The_Stranger_(1973_film)
Релиз

Качество: VHSRip
Формат: MKV
Видео: x264, 1385 кбит/с, 640х480, 29.97 к/с
Аудио 1: Русский ЛО (den904) (AC3, 2 ch, 192 Кбит/с)
Аудио 2: Английский (AC3, 2 ch, 192 Кбит/с)
Субтитры : Русские (kosmoaelita-karlivanovich)
Работа над релизом:
Релиз kosmoaelita.
Видеоряд найден на синемагедоне.
Перевод на слух с англ. по заказу kosmoaelita - karlivanovich
Русская озвучка по заказу kosmoaelita - den904
Спонсор русской озвучки - Андрей Берг

[kp][/kp]

Пример русских субтитров

Дополнительно

Also Known As (AKA) Stranded in Space
Hungary Az idegen
================================================
Для удаления,добавления и извлечения дорожек в mkv используйте бесплатную портативную mkvmerge GUI 7.1.0
Для присоединения потом дорожек к avi воспользуйтесь VirtualDubMod

Знаете ли вы, что...

Отзывы

MediaInfo

Общее
Уникальный идентификатор : 201674708703923177096583305185479825028 (0x97B922D44B34987D9BCE8DE90D4B1684)
Полное имя : F:\The Stranger aka Stranded in Space 1973.XviD.VHSRip.Rus.kosmoaelita.mkv
Формат : Matroska
Версия формата : Version 4 / Version 2
Размер файла : 1,15 Гбайт
Продолжительность : 1 ч. 33 м.
Общий поток : 1762 Кбит/сек
Название фильма : The Stranger (1973) aka Stranded in Space / Релиз www.kosmoaelita.com
Дата кодирования : UTC 2016-02-05 16:53:36
Программа кодирования : mkvmerge v6.6.0 ('The Edge Of The In Between') built on Dec 1 2013 17:55:00
Библиотека кодирования : libebml v1.3.0 + libmatroska v1.4.1
Видео
Идентификатор : 1
Формат : MPEG-4 Visual
Параметр BVOP формата : Нет
Параметр QPel формата : Нет
Параметр GMC формата : Без точки перехода
Параметр матрицы формата : Default (H.263)
Идентификатор кодека : V_MS/VFW/FOURCC / XVID
Идентификатор кодека/Подсказка : XviD
Продолжительность : 1 ч. 33 м.
Битрейт : 1343 Кбит/сек
Ширина : 640 пикселей
Высота : 480 пикселей
Соотношение сторон : 4:3
Режим частоты кадров : Постоянный
Частота кадров : 29,970 (29970/1000) кадров/сек
Цветовое пространство : YUV
Субдискретизация насыщенности : 4:2:0
Битовая глубина : 8 бит
Тип развёртки : Прогрессивная
Метод сжатия : С потерями
Бит/(Пиксели*Кадры) : 0.146
Размер потока : 900 Мбайт (76%)
Библиотека кодирования : DivX 6.8.5 (UTC 2009-08-20)
Default : Да
Forced : Нет
Аудио #1
Идентификатор : 2
Формат : AC-3
Формат/Информация : Audio Coding 3
Расширение режима : CM (complete main)
Параметр Endianness формата : Big
Идентификатор кодека : A_AC3
Продолжительность : 1 ч. 33 м.
Вид битрейта : Постоянный
Битрейт : 192 Кбит/сек
Каналы : 2 канала
Расположение каналов : Front: L R
Частота : 48,0 КГц
Частота кадров : 31,250 кадров/сек (1536 spf)
Метод сжатия : С потерями
Размер потока : 129 Мбайт (11%)
Заголовок : Русский ЛО (den904 для kosmoaelita.com) - поддержка А.Берг
Язык : Russian
Default : Да
Forced : Нет
Аудио #2
Идентификатор : 3
Формат : AC-3
Формат/Информация : Audio Coding 3
Расширение режима : CM (complete main)
Параметр Endianness формата : Big
Идентификатор кодека : A_AC3
Продолжительность : 1 ч. 33 м.
Вид битрейта : Постоянный
Битрейт : 192 Кбит/сек
Каналы : 2 канала
Расположение каналов : Front: L R
Частота : 48,0 КГц
Частота кадров : 31,250 кадров/сек (1536 spf)
Метод сжатия : С потерями
Размер потока : 129 Мбайт (11%)
Язык : English
Default : Нет
Forced : Нет
Текст #1
Идентификатор : 4
Формат : VobSub
Режим смешивания : zlib
Идентификатор кодека : S_VOBSUB
Идентификатор кодека/Информация : Picture based subtitle format used on DVDs
Заголовок : Русский (kosmoaelita-karlivanovich) VobSub - перевод на слух с англ.
Язык : Russian
Default : Да
Forced : Нет
Текст #2
Идентификатор : 5
Формат : VobSub
Режим смешивания : zlib
Идентификатор кодека : S_VOBSUB
Идентификатор кодека/Информация : Picture based subtitle format used on DVDs
Заголовок : Русский (kosmoaelita-karlivanovich) VobSub - перевод на слух с англ.
Язык : Russian
Default : Нет
Forced : Нет
Текст #3
Идентификатор : 6
Формат : UTF-8
Идентификатор кодека : S_TEXT/UTF8
Идентификатор кодека/Информация : UTF-8 Plain Text
Заголовок : Русский (kosmoaelita-karlivanovich) srt - перевод на слух с англ.
Язык : Russian
Default : Нет
Forced : Нет

Пример субтитров

1
00:00:01,084 --> 00:00:04,338
Bing Crosby Productions
представляет пилот сериала
2
00:00:09,092 --> 00:00:13,188
"ПРИШЕЛЕЦ"
("The Stranger" aka
"Stranded in Space", 1973г)
3
00:00:16,016 --> 00:00:17,643
в ролях ГПЕНН КОРБЕТТ
4
00:00:17,893 --> 00:00:19,691
КЕМЕРОН МИТЧЕПП
5
00:00:20,562 --> 00:00:22,405
приглашённая звезда
ШЕРОН АКЕР
6
00:00:23,190 --> 00:00:25,158
ЛЬЮ ЭЙРС
7
00:00:25,859 --> 00:00:27,611
ДЖОРДЖ КУПУРИС
8
00:00:28,737 --> 00:00:30,489
СТИВ ФРЕНКЕН
9
00:00:31,490 --> 00:00:33,288
ДИН ДЖЕГГЕР
10
00:00:34,201 --> 00:00:36,044
ТИМ О'КОННОР
11
00:00:42,209 --> 00:00:44,086
автор сценария
ДЖЕРАПД СЕНФОРД
12
00:00:44,503 --> 00:00:46,505
режиссёр ЛИ КАТЦИН
13
00:00:51,301 --> 00:00:54,020
Перевод karlivanovich
для сайта kosmoaelita. com
14
00:01:04,231 --> 00:01:06,029
Всё в норме.
15
00:01:14,449 --> 00:01:16,167
Хьюстон, говорит Патриот.
16
00:01:16,743 --> 00:01:19,337
Слышу тебя хорошо, Нил.
17
00:01:19,788 --> 00:01:22,416
Стив, проверь транспондер ещё раз.
18
00:01:22,541 --> 00:01:25,010
У нас, как будто,
всё работает нормально.
-------------------------
822
01:32:38,762 --> 01:32:40,764
Пойдём.
823
01:32:56,279 --> 01:32:58,873
Смогу ли я когда-нибудь
вернуться на Землю?
824
01:32:59,574 --> 01:33:01,451
Но ведь нет ничего невозможного.
825
01:33:01,576 --> 01:33:04,420
Ты ведь смог попасть сюда.
826
01:33:12,462 --> 01:33:15,932
также снимались ДЖЕРРИ ДУГЛАС,
АРЧ УАИТИНГ И другие.

Скриншоты










Скринлист

[Профиль] [ЛС]
Быстрый ответ

Имя:

            
Для отправки сообщений необходимо включить JavaScript
Показать сообщения:    
Ответить на тему

Текущее время: 14-Ноя 09:11

Часовой пояс: UTC + 3:30



Вы не можете начинать темы
Вы можете отвечать на сообщения
Вы не можете редактировать свои сообщения
Вы не можете удалять свои сообщения
Вы не можете голосовать в опросах
Вы не можете прикреплять файлы к сообщениям
Вы не можете скачивать файлы