Затерянные в космосе Навсегда / Lost In Space Forever (Kevin Burns / Кевин Барнс) [1998, США, Канада, документальный, фильм о фильме, DVDRip] ЛО (den904), СТ (kosmoaelita-karlivanovich)

Reply to topic
DL-List and Torrent activity
Size:  811 MB   |    Registered:  3 years 1 month   |    Completed:  7 times

Seeder not seen: 1 year 9 months

 
   
 
 
 
Author Message

admin ®

Gender: Male

Longevity: 6 years 8 months

Posts: 4725

Location: Україна

Post 06-Dec-2015 14:01

[Quote]

size=24]Затерянные в космосе Навсегда / Lost In Space Forever
Страна: США, Канада, Emmett Street Films, Fox Television Network, Foxstar Productions, New Line Television
Жанр: документальный , фильм о фильме
Год выпуска: 1998
Продолжительность: 01:40:37
Перевод: ЛО den904 по субтитрам от kosmoaelita-karlivanovich
Режиссер: Kevin Burns / Кевин Барнс
В ролях:
Credited cast:
John Larroquette ... Himself - Host
Rest of cast listed alphabetically:
Angela Cartwright ... Herself
Mark Goddard ... Himself
Jonathan Harris ... Himself
William Hurt ... Himself
Marta Kristen ... Judy Robinson (archive footage)
Matt LeBlanc ... Himself
June Lockhart ... Herself
Bob May ... Himself
Bill Mumy ... Himself
Gary Oldman ... Himself
Michael Rennie ... The Keeper (archive footage)
Mimi Rogers ... Herself
Kurt Russell ... Quano (archive footage)
Dick Tufeld ... Himself - Robot (voice)
Описание: Полнометражная документалка. посвященная 30-летию сериала Затерянные в космосе (1965-68гг). Изрядно постаревшие актеры рассказывают о съемках 84-серийного сериала и жалеют. что сериал так и не был завершен - их герои так и не сумели вернуться на Землю.
Релиз

Качество видео: DVDRip
Качество: DVDRip
Формат: XviD
Видео: x264, 756 кбит/с, 464x352, 29.97 к/с
Аудио 1: Русский ЛО (den904) (AC3, 2 ch, 192 Кбит/с)
Аудио 2: Английский (AC3, 2 ch, 192 Кбит/с)
Субтитры : Русские (kosmoaelita-karlivanovich)
Работа над релизом:
Релиз kosmoaelita.
Видеоряд найден в сети.
Перевод на слух с англ. по заказу kosmoaelita - karlivanovich
Русская озвучка по заказу kosmoaelita - den904
Спонсор русской озвучки - Андрей Берг



Пример русских субтитров

Дополнительно

================================================
Для удаления,добавления и извлечения дорожек в mkv используйте бесплатную портативную mkvmerge GUI 7.1.0
Для присоединения потом дорожек к avi воспользуйтесь VirtualDubMod

Знаете ли вы, что...

MediaInfo

Общее
Уникальный идентификатор : 235520417073721471759127428726822184059 (0xB12F951692A97C19A49852A53746A47B)
Полное имя : F:\Lost In Space 1965-1966 S01 DVDRip kosmoaelita.com\Lost In Space Forever 1998.Xvid.DVDRip.Rus.kosmoaelita.mkv
Формат : Matroska
Версия формата : Version 4 / Version 2
Размер файла : 811 Мбайт
Продолжительность : 1 ч. 40 м.
Общий поток : 1127 Кбит/сек
Название фильма : Lost In Space Forever / 1998 / Релиз www.kosmoaelita.com
Дата кодирования : UTC 2016-03-26 15:10:58
Программа кодирования : mkvmerge v6.6.0 ('The Edge Of The In Between') built on Dec 1 2013 17:55:00
Библиотека кодирования : libebml v1.3.0 + libmatroska v1.4.1
Attachments : POSTER.jpg
Видео
Идентификатор : 1
Формат : MPEG-4 Visual
Профиль формата : Advanced Simple@L5
Параметр BVOP формата : 1
Параметр QPel формата : Нет
Параметр GMC формата : Без точки перехода
Параметр матрицы формата : Выборочная
Идентификатор кодека : V_MS/VFW/FOURCC / XVID
Идентификатор кодека/Подсказка : XviD
Продолжительность : 1 ч. 40 м.
Битрейт : 721 Кбит/сек
Ширина : 464 пикселя
Высота : 352 пикселя
Соотношение сторон : 4:3
Режим частоты кадров : Постоянный
Частота кадров : 23,976 (23976/1000) кадра/сек
Цветовое пространство : YUV
Субдискретизация насыщенности : 4:2:0
Битовая глубина : 8 бит
Тип развёртки : Прогрессивная
Метод сжатия : С потерями
Бит/(Пиксели*Кадры) : 0.184
Размер потока : 519 Мбайт (64%)
Заголовок : kosmoaelita
Библиотека кодирования : XviD 1.1.0 Beta2 (UTC 2005-04-04)
Default : Да
Forced : Нет
Аудио #1
Идентификатор : 2
Формат : AC-3
Формат/Информация : Audio Coding 3
Расширение режима : CM (complete main)
Параметр Endianness формата : Big
Идентификатор кодека : A_AC3
Продолжительность : 1 ч. 40 м.
Вид битрейта : Постоянный
Битрейт : 192 Кбит/сек
Каналы : 2 канала
Расположение каналов : Front: L R
Частота : 48,0 КГц
Частота кадров : 31,250 кадров/сек (1536 spf)
Метод сжатия : С потерями
Размер потока : 138 Мбайт (17%)
Заголовок : Русский ЛО (den904 для kosmoaelita.com) - поддержка А.Берг
Язык : Russian
Default : Да
Forced : Нет
Аудио #2
Идентификатор : 3
Формат : AC-3
Формат/Информация : Audio Coding 3
Расширение режима : CM (complete main)
Параметр Endianness формата : Big
Идентификатор кодека : A_AC3
Продолжительность : 1 ч. 40 м.
Вид битрейта : Постоянный
Битрейт : 192 Кбит/сек
Каналы : 2 канала
Расположение каналов : Front: L R
Частота : 48,0 КГц
Частота кадров : 31,250 кадров/сек (1536 spf)
Метод сжатия : С потерями
Размер потока : 138 Мбайт (17%)
Язык : English
Default : Нет
Forced : Нет
Текст #1
Идентификатор : 4
Формат : VobSub
Режим смешивания : zlib
Идентификатор кодека : S_VOBSUB
Идентификатор кодека/Информация : Picture based subtitle format used on DVDs
Заголовок : Русский (kosmoaelita-karlivanovich) VobSub - перевод на слух с англ.
Язык : Russian
Default : Да
Forced : Нет
Текст #2
Идентификатор : 5
Формат : UTF-8
Идентификатор кодека : S_TEXT/UTF8
Идентификатор кодека/Информация : UTF-8 Plain Text
Заголовок : Русский (kosmoaelita-karlivanovich) srt - перевод на слух с англ.
Язык : Russian
Default : Нет
Forced : Нет

Пример субтитров

1
00:00:03,836 --> 00:00:05,956
Проверка. Раз, два.
2
00:00:06,439 --> 00:00:08,862
- Проверка.
- Робот, чем занимаешься?
3
00:00:08,954 --> 00:00:11,149
Проверяю мои аудио реле.
4
00:00:11,319 --> 00:00:15,987
Не хочу запороть свою сцену из-за
постыдных технических проблем.
5
00:00:16,096 --> 00:00:19,000
Ты немного опоздал,
мы уже в эфире.
6
00:00:19,799 --> 00:00:21,799
- Что?!
- Уже в эфире, сам посмотри.
-------------------------------------
852
01:39:24,802 --> 01:39:26,802
Навсегда".
853
01:39:32,154 --> 01:39:34,393
Ещё тридцать лет так протянем?
854
01:39:34,504 --> 01:39:36,238
Легко.
855
01:39:39,406 --> 01:39:42,126
М-р Харрис, м-р Мей,
поприветствуем!
856
01:40:27,099 --> 01:40:30,294
Я не Аллен, за фотографии
платить не буду.
857
01:40:31,124 --> 01:40:33,124
Взрыв!

Скриншоты










Скринлист

cd Рип дополнительно залит на ОБЛАКО cd2
Lost In Space Forever 1998.Xvid.DVDRip.Rus.kosmoaelita.mkv.torrent
Torrent: Registered [ 2016-03-26 18:19 ]

Download .torrent

Download

32 KB

Status: checked
Completed: 7 times
Size: 811 MB
 


Last edited by admin on 2016-03-26 18:19; edited 12 times in total
[Profile] [PM]

Трамвай-фильм

Gender: Male

Longevity: 4 years 9 months

Posts: 1454

Location: Россия

Post 06-Dec-2015 16:00 (after 1 hour 59 minutes)

[Quote]

надо будет посмотреть.
[Profile] [PM]

den904

Gender: Male

Longevity: 5 years 11 months

Posts: 185

Post 23-Dec-2015 14:49 (after 16 days)

[Quote]

кто так нещадно, наспойлерил мне в описании
[Profile] [PM]

admin ®

Gender: Male

Longevity: 6 years 8 months

Posts: 4725

Location: Україна

Post 23-Dec-2015 18:52 (after 4 hours)

[Quote]

Не понял, о чем ты?
[Profile] [PM]

den904

Gender: Male

Longevity: 5 years 11 months

Posts: 185

Post 23-Dec-2015 19:36 (after 43 minutes)

[Quote]

их герои так и не сумели вернуться на Землю. ))))
[Profile] [PM]

admin ®

Gender: Male

Longevity: 6 years 8 months

Posts: 4725

Location: Україна

Post 23-Dec-2015 19:42 (after 6 minutes)

[Quote]

Герои хотели вернутся, но на ТВ бабки кончились ab
[Profile] [PM]

admin ®

Gender: Male

Longevity: 6 years 8 months

Posts: 4725

Location: Україна

Post 26-Mar-2016 09:23 (after 3 months 2 days)

[Quote]

Добавлена русская озвучка от den904
[Profile] [PM]

Трамвай-фильм

Gender: Male

Longevity: 4 years 9 months

Posts: 1454

Location: Россия

Post 26-Mar-2016 21:36 (after 12 hours)

[Quote]

12638Герои хотели вернутся, но на ТВ бабки кончились ab
Это хроническая проблема массы американских ТВ сериалом и м/сериалов, когда дело кончается ничем
[Profile] [PM]
Quick Reply

Name:

            
Heads necessary to send messages to enable JavaScript
Display posts:    
Reply to topic

Current time is: 26-May 10:07

All times are UTC + 3



You cannot post new topics in this forum
You can reply to topics in this forum
You cannot edit your posts in this forum
You cannot delete your posts in this forum
You cannot vote in polls in this forum
You cannot attach files in this forum
You can download files in this forum