Доктор Голдфут и девушки-бомбы / Le spie vengono dal semifreddo / Dr. Goldfoot and the Girl Bombs (Марио Бава / Mario Bava) [1966 г., фантастика, комедия, BDRip-1080p] ПМ (MGM HD)

Reply to topic
 
Author Message

admin ®

Gender: Male

Longevity: 7 years 8 months

Posts: 4799

Post 02-Dec-2015 22:28

[Quote]

Доктор Голдфут и девушки-бомбы / Le spie vengono dal semifreddo / Dr. Goldfoot and the Girl Bombs
Год выпуска: 1966
Страна: Италия, США
Жанр: фантастика, комедия
Продолжительность: 01:23:20, 01:18:31
Перевод (англ. версия): ПМ MGM HD
Режиссер: Марио Бава / Mario Bava
В ролях: Vincent Price ... General Willis / Dr. Goldfoot
Fabian ... Bill Dexter
Franco Franchi ... Franco
Ciccio Ingrassia ... Ciccio
Francesco Mulé ... Colonel Doug Benson
Laura Antonelli ... Rosanna
Описание: Учёный-злодей д-р Голдфут собирается захватить власть над всей планетой Земля. Для этого он изобретает смертоносных роботов, пластиковых клонов девушек, начиненных взрывчаткой, которые запрограммированы на уничтожение военной элиты стран НАТО. Д-р Голдфут рассчитывает за счет этого спровоцировать военный конфликт между Россией и Америкой. Секретный агент Билл Декстер (его сыграл Фабиан) должен обезвредить злобного маньяка, в этом ему помогает парочка придурков (умопомрачительные комики Франко и Чиччо) и обворожительная секретарша Росанна (легендарная Лаура Антонелли здесь максимально скромна). Герои, преследуя злодея, попадают в Сибирь в лапы ОГПУ, пьют водку и слушают цыган, а чем это всё кончится...смотрите сами! В этом комедийном фильме, снятом с явными аллюзиями на тему Джеймса Бонда (я бы даже сказал, грубо пародируя бондиаду) и как итальянский ответ на вышедший годом раньше в Америке фильм "Доктор Голдфут и бикини-машина" с тем же Винсентом Прайсом в роли злодея, нет никакой особой художественной ценности, это чистое развлекалово. Кто помнит советскую комедию "Семь стариков и одна девушка", сразу поймет, в каком ключе снят и этот фильм. Кстати, при просмотре у меня лично возникали неоднократные сильные ассоциации с "Семью стариками..." по многим аспектам, в том числе художественному оформлению, сюжетным перипетиям, клоунским диалогам и даже отдельным репликам персонажей. Кстати, этот фильм снят в 1966, а "Семь стариков..." - в 1968 году. cd Доктор Голдфут и бикини-машины / Dr. Goldfoot and the Bikini Machine cd2Качество: BDRip-1080p
Формат: MKV
Видео: x264, 10000 кбит/с, 1920x1040, 23,976 к/с[, crf=20
Аудио 1: Русский ПМ (ССК+MGM HD) (AC3, 2 ch, 192 Кбит/с)
Аудио 2: Английский (AC3, 2 ch, 384 Кбит/с)
Аудио 3: Английский Comment (AC3, 2 ch, 256 Кбит/с)
Работа над релизом:
Рип с BD25 (англ. версия) - sasha20072007 (kosmoaelita)



Русский ПМ (англ. версия)

Релиз

Перевод и озвучка итал. версии - ССК+
Рип с ДВД5 - kosmoaelita
Русская озвучка была наложена с высоким уровнем громкости, поєтому пришлось немного пройтись компрессором
Для Украины: рип дополнительно залит в файлохранилище
Для удаления,добавления и извлечения дорожек в mkv используйте бесплатную портативную mkvmerge GUI 6.2.0
Для присоединения потом дорожек к avi воспользуйтесь VirtualDubMod

Дополнительно

рейтинг MPAA лицам до 17 лет обязательно присутствие взрослого
слоган «MEET THE MOST TITILATING TIME BOMBS EVER!»
Also Known As (AKA)
Dr. Goldfoot and the Girl Bombs USA, World-wide (English title) (theatrical title)
Bidik ile Düdük kadin bombalar arasinda Turkey (imdb display title) (Turkish title)
Bonecas Explosivas Brazil
Dr. Goldfoot and his Girl Bombs World-wide (English title) (informal title)
Dr. Goldfoot and the 'S' Bomb UK
Dr. Goldfoot and the 'S' Bombs
Dr. Goldfoot and the Love Bomb
Dr. Goldfoot and the Sex Bombs
Dr. Goldfoot és a lánybombák Hungary (imdb display title)
Il clan dei due mafiosi Italy (alternative title)
L'espion qui venait du surgele France (TV title)
L'espion qui venait du surgelé France
Oi dyo mafiozoi Greece (transliterated ISO-LATIN-1 title)
Spies Come from Half-Cold
The Spy Came from the Semi-Cold World-wide (English title) (literal title)
Two Mafia Guys from the FBI World-wide (English title) (literal title)

MediaInfo

Общее
Уникальный идентификатор : 238227249394451329185830321955297970666 (0xB338E639B09D2446B2CFA88050A249EA)
Полное имя : F:\Dr. Goldfoot and the Girl Bombs 1966.x264.BDRip.1080p.Eng.version.kosmoaelita.mkv
Формат : Matroska
Версия формата : Version 4 / Version 2
Размер файла : 6,20 Гбайт
Продолжительность : 1 ч. 21 м.
Общий поток : 10,8 Мбит/сек
Название фильма : Dr. Goldfoot and the Girl Bombs | 1966 | rip from NTSC BD25 by sasha20072007 (kosmoaelita) (2015-12-02), crf=20.11
Дата кодирования : UTC 2015-12-02 19:15:28
Программа кодирования : mkvmerge v6.6.0 ('The Edge Of The In Between') built on Dec 1 2013 17:55:00
Библиотека кодирования : libebml v1.3.0 + libmatroska v1.4.1
Attachements : 00004.mkv.encoding.log
DURATION : 01:21:55.953000000
NUMBER_OF_FRAMES : 117865
NUMBER_OF_BYTES : 6145181464
_STATISTICS_WRITING_APP : mkvmerge v7.8.0 ('River Man') 32bit built on Mar 27 2015 16:18:02
_STATISTICS_WRITING_DATE_UTC : 2015-12-02 02:15:27
_STATISTICS_TAGS : BPS DURATION NUMBER_OF_FRAMES NUMBER_OF_BYTES
Видео
Идентификатор : 1
Формат : AVC
Формат/Информация : Advanced Video Codec
Профиль формата : High@L4.1
Параметр CABAC формата : Да
Параметр ReFrames формата : 4 кадра
Идентификатор кодека : V_MPEG4/ISO/AVC
Продолжительность : 1 ч. 21 м.
Битрейт : 10000 Кбит/сек
Ширина : 1920 пикселей
Высота : 1040 пикселей
Соотношение сторон : 1,85:1
Режим частоты кадров : Постоянный
Частота кадров : 23,976 кадра/сек
Цветовое пространство : YUV
Субдискретизация насыщенности : 4:2:0
Битовая глубина : 8 бит
Тип развёртки : Прогрессивная
Бит/(Пиксели*Кадры) : 0.209
Размер потока : 5,60 Гбайт (90%)
Библиотека кодирования : x264 core 130 r2273 b3065e6
Настройки программы : cabac=1 / ref=4 / deblock=1:-1:-1 / analyse=0x3:0x133 / me=umh / subme=10 / psy=1 / psy_rd=0.99:0.14 / mixed_ref=1 / me_range=32 / chroma_me=1 / trellis=2 / 8x8dct=1 / cqm=0 / deadzone=21,11 / fast_pskip=1 / chroma_qp_offset=-3 / threads=6 / lookahead_threads=1 / sliced_threads=0 / nr=0 / decimate=1 / interlaced=0 / bluray_compat=0 / constrained_intra=0 / bframes=8 / b_pyramid=2 / b_adapt=2 / b_bias=0 / direct=3 / weightb=1 / open_gop=0 / weightp=2 / keyint=210 / keyint_min=21 / scenecut=40 / intra_refresh=0 / rc_lookahead=80 / rc=2pass / mbtree=1 / bitrate=10000 / ratetol=1.0 / qcomp=0.65 / qpmin=0 / qpmax=69 / qpstep=4 / cplxblur=20.0 / qblur=0.5 / ip_ratio=1.25 / aq=1:0.90
Default : Да
Forced : Нет
Основные цвета : BT.709
Характеристики трансфера : BT.709
Коэффициенты матрицы : BT.709
colour_range : Limited
Аудио #1
Идентификатор : 2
Формат : AC-3
Формат/Информация : Audio Coding 3
Расширение режима : CM (complete main)
Параметр Endianness формата : Big
Идентификатор кодека : A_AC3
Продолжительность : 1 ч. 21 м.
Вид битрейта : Постоянный
Битрейт : 192 Кбит/сек
Каналы : 2 канала
Расположение каналов : Front: L R
Частота : 48,0 КГц
Битовая глубина : 16 бит
Метод сжатия : С потерями
Размер потока : 113 Мбайт (2%)
Заголовок : Русский ПМ (MGM HD)
Язык : Russian
Default : Да
Forced : Нет
Аудио #2
Идентификатор : 3
Формат : AC-3
Формат/Информация : Audio Coding 3
Расширение режима : CM (complete main)
Параметр Endianness формата : Big
Идентификатор кодека : A_AC3
Продолжительность : 1 ч. 21 м.
Вид битрейта : Постоянный
Битрейт : 384 Кбит/сек
Каналы : 2 канала
Расположение каналов : Front: L R
Частота : 48,0 КГц
Битовая глубина : 16 бит
Метод сжатия : С потерями
Размер потока : 225 Мбайт (4%)
Язык : English
Default : Нет
Forced : Нет
Аудио #3
Идентификатор : 4
Формат : AC-3
Формат/Информация : Audio Coding 3
Расширение режима : CM (complete main)
Параметр Endianness формата : Big
Идентификатор кодека : A_AC3
Продолжительность : 1 ч. 21 м.
Вид битрейта : Постоянный
Битрейт : 256 Кбит/сек
Каналы : 2 канала
Расположение каналов : Front: L R
Частота : 48,0 КГц
Битовая глубина : 16 бит
Метод сжатия : С потерями
Размер потока : 150 Мбайт (2%)
Заголовок : Eng Comment
Язык : English
Default : Нет
Forced : Нет
Меню
00:00:00.000 : en:00:00:00.000
00:09:02.959 : en:00:09:02.959
00:20:55.504 : en:00:20:55.504
00:34:15.929 : en:00:34:15.929
00:42:31.549 : en:00:42:31.549
00:54:58.337 : en:00:54:58.337
01:03:37.564 : en:01:03:37.564
01:12:21.879 : en:01:12:21.879
01:22:04.795 : en:01:22:04.795
cd Рипы дополнительно залиты на mail.ru cd2 cd Доктор Голдфут и бикини-машина / Dr. Goldfoot and the Bikini Machine cd2
[Profile] [PM]
Display posts:    
Reply to topic

Current time is: 30-May 02:05

All times are UTC + 3



You cannot post new topics in this forum
You cannot reply to topics in this forum
You cannot edit your posts in this forum
You cannot delete your posts in this forum
You cannot vote in polls in this forum
You cannot attach files in this forum
You cannot download files in this forum