Чудо в Вальби / Miraklet i Valby (Оке Сандгрен / Åke Sandgren) [1989, Дания, Швеция, Фантастика, DVDRip] ЛО (den904). СТ (karlivanovich)

Reply to topic
 
Author Message

$Shorox ®

Gender: Male

Longevity: 6 years 5 months

Posts: 1888

Post 26-Nov-2015 21:38

[Quote]

Чудо в Вальби / Чудо в Валби / Чудо в Вальбю / Miraklet i Valby
Страна: Дания, Швеция
Жанр: Фантастика
Год выпуска: 1989
Продолжительность: 01:21:08
Перевод: ЛО den904 по субтитрам от karlivanovich
Cубтитры: русские
Режиссер: Оке Сандгрен / Åke Sandgren
В ролях: Джейкоб Кац, Троелс Асмуссен, Лина Инглунд, Амалия Альструп, Грегерс Рейманн, Йенс Оккинг, Ингвар Хирдвалль, Карен-Лиза Мюнстер, Петер Хессе Овергаард, Мона Сейлитц
Описание: Один датский школьник-радиолюбитель случайно сделал машину времени.
Детский, добрый, спокойный фильм.


Сэмпл: http://multi-up.com/
Работа над релизом:
Релиз kosmoaelita
Тайминг субтитров - $Shorox
Русский релиз увидел свет благодаря kosmoaelita, $Shorox
Перевод - karlivanovich
Русская озвучка по заказу kosmoaelita - den904
Спонсор русской озвучки - Андрей Берг

Качество видео: DVDRip
Формат видео: MKV
Видео: XviD, 720x448, 16:10, 25,000, 1971 Кбит/сек
Аудио 1: Русский ЛО (den904), AC-3, 224 Кбит/сек, 2 канала, 48,0 КГц
Аудио 2: Датский, AC-3, 384 Кбит/сек, 2 канала, 48,0 КГц
Формат субтитров: softsub (SRT)
Трейлер:

MediaInfo

Общее
Уникальный идентификатор : 221150994807206504145163676867498996360 (0xA66021DF442884C089DFAFFDE9DDF288)
Полное имя : F:\Miraklet i Valby 1989.XviD.DVDRip.Rus.kosmoaelita.mkv
Формат : Matroska
Версия формата : Version 4 / Version 2
Размер файла : 1,49 Гбайт
Продолжительность : 1 ч. 21 м.
Общий поток : 2628 Кбит/сек
Дата кодирования : UTC 2016-01-17 02:30:25
Программа кодирования : mkvmerge v6.6.0 ('The Edge Of The In Between') built on Dec 1 2013 17:55:00
Библиотека кодирования : libebml v1.3.0 + libmatroska v1.4.1
DURATION : 01:21:08.000000000
NUMBER_OF_FRAMES : 152125
NUMBER_OF_BYTES : 233664000
_STATISTICS_WRITING_APP : mkvmerge v7.9.0 ('Birds') 64bit
_STATISTICS_WRITING_DATE_UTC : 2015-11-26 18:08:49
_STATISTICS_TAGS : BPS DURATION NUMBER_OF_FRAMES NUMBER_OF_BYTES
Видео
Идентификатор : 1
Формат : MPEG-4 Visual
Профиль формата : Advanced Simple@L5
Параметр BVOP формата : 1
Параметр QPel формата : Нет
Параметр GMC формата : Без точки перехода
Параметр матрицы формата : Выборочная
Идентификатор кодека : V_MS/VFW/FOURCC / XVID
Идентификатор кодека/Подсказка : XviD
Продолжительность : 1 ч. 21 м.
Битрейт : 1968 Кбит/сек
Ширина : 720 пикселей
Высота : 448 пикселей
Соотношение сторон : 16:10
Режим частоты кадров : Постоянный
Частота кадров : 25,000 кадров/сек
Цветовое пространство : YUV
Субдискретизация насыщенности : 4:2:0
Битовая глубина : 8 бит
Тип развёртки : Прогрессивная
Метод сжатия : С потерями
Бит/(Пиксели*Кадры) : 0.244
Размер потока : 1,12 Гбайт (75%)
Библиотека кодирования : XviD 1.2.1 (UTC 2008-12-04)
Default : Да
Forced : Нет
Аудио #1
Идентификатор : 2
Формат : AC-3
Формат/Информация : Audio Coding 3
Расширение режима : CM (complete main)
Параметр Endianness формата : Big
Идентификатор кодека : A_AC3
Продолжительность : 1 ч. 21 м.
Вид битрейта : Постоянный
Битрейт : 224 Кбит/сек
Каналы : 2 канала
Расположение каналов : Front: L R
Частота : 48,0 КГц
Битовая глубина : 16 бит
Метод сжатия : С потерями
Размер потока : 130 Мбайт (9%)
Заголовок : Русский ЛО (den904 для kosmoaelita.com) - поддержка А.Берг
Язык : Russian
Default : Да
Forced : Нет
Аудио #2
Идентификатор : 3
Формат : AC-3
Формат/Информация : Audio Coding 3
Расширение режима : CM (complete main)
Параметр Endianness формата : Big
Идентификатор кодека : A_AC3
Продолжительность : 1 ч. 21 м.
Вид битрейта : Постоянный
Битрейт : 384 Кбит/сек
Каналы : 2 канала
Расположение каналов : Front: L R
Частота : 48,0 КГц
Битовая глубина : 16 бит
Метод сжатия : С потерями
Размер потока : 223 Мбайт (15%)
Заголовок : Датский
Язык : Danish
Default : Нет
Forced : Нет
Текст #1
Идентификатор : 4
Формат : VobSub
Режим смешивания : zlib
Идентификатор кодека : S_VOBSUB
Идентификатор кодека/Информация : The same subtitle format used on DVDs
Заголовок : Русский (karlivanovich-kosmoaelita.com) VobSub
Язык : Russian
Default : Да
Forced : Нет
Текст #2
Идентификатор : 5
Формат : UTF-8
Идентификатор кодека : S_TEXT/UTF8
Идентификатор кодека/Информация : UTF-8 Plain Text
Заголовок : Русский (karlivanovich-kosmoaelita.com) srt
Язык : Russian
Default : Нет
Forced : Нет

Скриншот c названием фильма

Скриншоты




[Profile] [PM]

admin

Gender: Male

Longevity: 6 years 8 months

Posts: 4725

Location: Україна

Post 17-Jan-2016 03:54 (after 1 month 20 days)

[Quote]

Добавлена русская озвучка от den904
[Profile] [PM]
Display posts:    
Reply to topic

Current time is: 26-May 22:58

All times are UTC + 3



You cannot post new topics in this forum
You cannot reply to topics in this forum
You cannot edit your posts in this forum
You cannot delete your posts in this forum
You cannot vote in polls in this forum
You cannot attach files in this forum
You cannot download files in this forum