Воины Апокалипсиса / Warriors of the Apocalypse / Searchers of the Voodoo Mountain (Bobby A. Suarez / Бобби А. Суарез) [1985, США, Филиппины, фантастика, постапокалипсис, боевик, VHSRip] (ЛО : Rider (Александр Райдер) (СТ : Eazin)

Reply to topic
DL-List and Torrent activity
Size:  1.37 GB   |    Registered:  4 years 10 months   |    Completed:  2 times

Seeder not seen: 1 year 8 months

 
   
 
 
 
Author Message

admin ®

Gender: Male

Longevity: 8 years

Posts: 4794

Post 20-Nov-2015 11:02

[Quote]

Воины Апокалипсиса / Warriors of the Apocalypse / Searchers of the Voodoo Mountain
Страна: США, Филиппины, A-S Panorama International Films Inc., BAS Film Productions Inc.
Жанр: фантастика, постапокалипсис, боевик
Год выпуска: 1985
Продолжительность: 01:31:47
Перевод: ЛО Rider (Александр Райдер) по субтитрам от Eazin
Режиссер: Bobby A. Suarez / Бобби А. Суарез
В ролях:
Michael James ... Trapper
Deborah Moore
Ken Metcalfe
Mike Cohen
Robert Marius
David Brass
Charlotte Cain
David Light
Steve Rogers ... (as Stephen Rogers)
Franco Guerrero ... Anuk (as Chito Guerrero)
Rest of cast listed alphabetically:
Pete Cooper
Richard S. Suarez ... Little pigmy
Описание: Прошло 150 лет после Больших Радиационных Войн. Банда Траппера промышляет случайными заработками смайлик+ Однажды они встречают странного человека, у которого в котомке куча еды и который утверждает, что был свидетелем войн древности. Он агитирует бандитов на восхождение на некую Гору Жизни, якобы нетронутую радиацией, где растут экзотические фрукты и живут прелестные девственницы. На этой странной горе секреты магии и технологии сплелись в один большой клубок, который и предстоит распутать главарю банды - Трапперу и его правой руке
Качество: VHSRip
Формат: MKV
Видео: x264, 1685 кбит/с, 704x524, 25 к/с, crf=21
Аудио 1: Русский ЛО () (AC3, 2 ch, 192 Кбит/с)
Аудио 2: Английский (AC3, 2 ch, 256 Кбит/с)
Субтитры : Русские (), английские
Работа над релизом:
Рип с PAL VHSDVD с синемагеддона - kosmoaelita
Синхронизация русской дорожки и тайминг субтитров - kosmoaelita



Пример русской озвучки

Дополнительно

слоган «They turned paradise into hell»
рейтинг MPAA рейтинг R лицам до 17 лет обязательно присутств
================================================
Для удаления,добавления и извлечения дорожек в mkv используйте бесплатную портативную mkvmerge GUI 7.1.0
Для присоединения потом дорожек к avi воспользуйтесь VirtualDubMod

Отзывы

MediaInfo

Общее
Уникальный идентификатор : 239807296785952922342720845879028820332 (0xB469349389EA3E398846C5E98929296C)
Полное имя : F:\Warriors of the Apocalypse 1985.x264.VHSRip.Rus.kosmoaelita.mkv
Формат : Matroska
Версия формата : Version 4 / Version 2
Размер файла : 1,37 Гбайт
Продолжительность : 1 ч. 31 м.
Общий поток : 2143 Кбит/сек
Название фильма : Warriors of the Apocalypse / Searchers of the Voodoo Mountain / Воины Апокалипсиса / 1985 / Rip by kosmoaelita 2015-11-20
Дата кодирования : UTC 2015-11-20 07:46:57
Программа кодирования : mkvmerge v6.6.0 ('The Edge Of The In Between') built on Dec 1 2013 17:55:00
Библиотека кодирования : libebml v1.3.0 + libmatroska v1.4.1
Attachements : VTS_01_1_001.mkv.encoding.log / Searchers of the Voodoo Mountain VHS SLV.JPG
DURATION : 01:31:46.592000000
NUMBER_OF_FRAMES : 172081
NUMBER_OF_BYTES : 176210944
_STATISTICS_WRITING_APP : mkvmerge v7.8.0 ('River Man') 32bit built on Mar 27 2015 16:18:02
_STATISTICS_WRITING_DATE_UTC : 2015-11-20 04:33:17
_STATISTICS_TAGS : BPS DURATION NUMBER_OF_FRAMES NUMBER_OF_BYTES
Видео
Идентификатор : 1
Формат : AVC
Формат/Информация : Advanced Video Codec
Профиль формата : High@L4.1
Параметр CABAC формата : Да
Параметр ReFrames формата : 9 кадров
Идентификатор кодека : V_MPEG4/ISO/AVC
Продолжительность : 1 ч. 31 м.
Битрейт : 1685 Кбит/сек
Ширина : 704 пикселя
Высота : 524 пикселя
Соотношение сторон : 4:3
Режим частоты кадров : Постоянный
Частота кадров : 25,000 кадров/сек
Цветовое пространство : YUV
Субдискретизация насыщенности : 4:2:0
Битовая глубина : 8 бит
Тип развёртки : Прогрессивная
Бит/(Пиксели*Кадры) : 0.183
Размер потока : 1,06 Гбайт (77%)
Библиотека кодирования : x264 core 130 r2273 b3065e6
Настройки программы : cabac=1 / ref=9 / deblock=1:-1:-1 / analyse=0x3:0x133 / me=umh / subme=10 / psy=1 / psy_rd=0.99:0.14 / mixed_ref=1 / me_range=24 / chroma_me=1 / trellis=2 / 8x8dct=1 / cqm=0 / deadzone=21,11 / fast_pskip=1 / chroma_qp_offset=-3 / threads=6 / lookahead_threads=1 / sliced_threads=0 / nr=0 / decimate=1 / interlaced=0 / bluray_compat=0 / constrained_intra=0 / bframes=9 / b_pyramid=2 / b_adapt=2 / b_bias=0 / direct=3 / weightb=1 / open_gop=0 / weightp=2 / keyint=210 / keyint_min=21 / scenecut=40 / intra_refresh=0 / rc_lookahead=80 / rc=2pass / mbtree=1 / bitrate=1685 / ratetol=1.0 / qcomp=0.65 / qpmin=0 / qpmax=69 / qpstep=4 / cplxblur=20.0 / qblur=0.5 / ip_ratio=1.25 / aq=1:0.90
Default : Да
Forced : Нет
Основные цвета : BT.601 PAL
Характеристики трансфера : BT.470 System B, BT.470 System G
Коэффициенты матрицы : BT.601
colour_range : Limited
Аудио #1
Идентификатор : 2
Формат : AC-3
Формат/Информация : Audio Coding 3
Расширение режима : CM (complete main)
Параметр Endianness формата : Big
Идентификатор кодека : A_AC3
Продолжительность : 1 ч. 31 м.
Вид битрейта : Постоянный
Битрейт : 192 Кбит/сек
Каналы : 2 канала
Расположение каналов : Front: L R
Частота : 48,0 КГц
Битовая глубина : 16 бит
Метод сжатия : С потерями
Размер потока : 126 Мбайт (9%)
Заголовок : Русский ЛО Rider (Александр Райдер) по субтитраммот Eazin
Язык : Russian
Default : Да
Forced : Нет
Аудио #2
Идентификатор : 3
Формат : AC-3
Формат/Информация : Audio Coding 3
Расширение режима : CM (complete main)
Параметр Endianness формата : Big
Идентификатор кодека : A_AC3
Продолжительность : 1 ч. 31 м.
Вид битрейта : Постоянный
Битрейт : 256 Кбит/сек
Каналы : 2 канала
Расположение каналов : Front: L R
Частота : 48,0 КГц
Битовая глубина : 16 бит
Метод сжатия : С потерями
Размер потока : 168 Мбайт (12%)
Язык : English
Default : Нет
Forced : Нет
Текст #1
Идентификатор : 4
Формат : VobSub
Режим смешивания : zlib
Идентификатор кодека : S_VOBSUB
Идентификатор кодека/Информация : The same subtitle format used on DVDs
Заголовок : Русский (Eazin) -перевод с англ. субтитров
Язык : Russian
Default : Да
Forced : Нет
Текст #2
Идентификатор : 5
Формат : VobSub
Режим смешивания : zlib
Идентификатор кодека : S_VOBSUB
Идентификатор кодека/Информация : The same subtitle format used on DVDs
Заголовок : Русский (Eazin) -перевод с англ. субтитров
Язык : Russian
Default : Нет
Forced : Нет
Текст #3
Идентификатор : 6
Формат : UTF-8
Идентификатор кодека : S_TEXT/UTF8
Идентификатор кодека/Информация : UTF-8 Plain Text
Заголовок : Русский (Eazin) -перевод с англ. субтитров
Язык : Russian
Default : Нет
Forced : Нет
Текст #4
Идентификатор : 7
Формат : UTF-8
Идентификатор кодека : S_TEXT/UTF8
Идентификатор кодека/Информация : UTF-8 Plain Text
Язык : English
Default : Нет
Forced : Нет

Пример субтитров

1
00:00:44,520 --> 00:00:48,430
"Воины Апокалипсиса"
(1985г)
2
00:00:48,520 --> 00:00:52,430
"Warriors of the Apocalypse" aka
"Searchers of the Voodoo Mountain"
3
00:00:52,465 --> 00:00:55,590
Время действия: Через 150 лет.
4
00:00:55,950 --> 00:00:57,690
Место действия: Земля.
5
00:00:57,840 --> 00:01:01,440
Земля, измученная нескончаемыми
войнами сошедшего с ума мира.
6
00:01:01,650 --> 00:01:04,150
Отстатки человечества,
вернувшиеся к средневековью,
7
00:01:04,240 --> 00:01:09,010
...бродят по бесплодной планете, грабя и насилуя,
повинуясь своему звериному инстинкту...
----------------------
359
01:29:32,860 --> 01:29:36,070
Это ясно каждому.
Альтернатива - бесплодная пустошь.
360
01:29:37,450 --> 01:29:39,600
Я остаюсь. Помогу отстроить
им тут все заново.
361
01:29:40,450 --> 01:29:41,660
Отдохнем тут?
362
01:29:43,690 --> 01:29:44,740
Ну так что?
363
01:29:46,070 --> 01:29:47,450
Решать вам.

Скриншоты















Скринлист

cd Рип дополнительно залит на ОБЛАКО cd2
Warriors of the Apocalypse 1985.x264.VHSRip.Rus.kosmoaelita.mkv.torrent
Torrent: Registered [ 2015-11-20 11:21 ]

Download .torrent

Download

55 KB

Status: checked
Completed: 2 times
Size: 1.37 GB
 


Last edited by admin on 2015-11-21 03:47; edited 11 times in total
[Profile] [PM]

admin ®

Gender: Male

Longevity: 8 years

Posts: 4794

Post 20-Nov-2015 11:02 (after 28 seconds)

[Quote]

Рип без строба
[Profile] [PM]
Display posts:    
Reply to topic

Current time is: 29-Sep 03:38

All times are UTC + 3



You cannot post new topics in this forum
You cannot reply to topics in this forum
You cannot edit your posts in this forum
You cannot delete your posts in this forum
You cannot vote in polls in this forum
You cannot attach files in this forum
You can download files in this forum