Ночное рабство / Инопланетная любовь / Night slaves / Amore extraterrestre (Тед Пост / Ted Post) [1970, США, фантастика, детектив, VHSRip] СТ (kosmoaelita-karlivanovich)

Reply to topic
 
Author Message

admin ®

Gender: Male

Longevity: 6 years 11 months

Posts: 4725

Location: Україна

Post 04-Nov-2015 00:32

[Quote]

Ночное рабство / Инопланетная любовь / Night slaves / Amore extraterrestre
Страна: США, Bing Crosby Productions
Жанр: фантастика, детектив
Год выпуска: 1970
Продолжительность: 01:08:24
Перевод: Субтитры _ kosmoaelita-karlivanovich
Режиссер: Тед Пост / Ted Post
В ролях:
James Franciscus ... Clay Howard
Lee Grant ... Marjorie Howard
Scott Marlowe ... Matt Russell
Andrew Prine ... Fess Beany / Noel
Tisha Sterling ... Annie Fletcher / Naillil
Leslie Nielsen ... Sheriff Henshaw
Morris Buchanan ... Mr. Hale
John Kellogg ... Mr. Fletcher
Virginia Vincent ... Mrs. Crawford
Cliff Carnell ... Deputy Spencer
Victor Izay ... Jeff Pardee
Raymond Mayo ... Joe Landers
Russell Thorson ... Dr. Sanders
Nancy Valentine ... May
Описание: A man and his wife find themselves stranded in a small western town. He discovers that a strange force has turned the residents into zombies, and runs into a beautiful woman who he believes is the key to the mystery.
Релиз

Качество: VHSRip
Формат: MKV
Видео: x264, 1175 кбит/с, 720x540, 29.97 к/с
Аудио 1: Английский (MP3, 2 ch, 128 Кбит/с)
Аудио 2: Итальянский (AC3, 2 ch, 192 Кбит/с)
Субтитры : Русские (kosmoaelita-karlivanovich)
Работа над релизом:
Релиз kosmoaelita.
Видеоряд найден в сети.
Перевод на слух с англ. по заказу kosmoaelita - karlivanovich



Пример русских субтитров

Дополнительно

слоган «Morning Brings Denials of a Whole Town's Mysterious Night Journey»
Формат изображения: 1.33 : 1
Формат копии: 35 mm
Формат съёмок: 35 mm
Изображение: цветное
Язык: английский
Also Known As (AKA) Brazil Escravos da Noite
================================================
Для удаления,добавления и извлечения дорожек в mkv используйте бесплатную портативную mkvmerge GUI 7.1.0
Для присоединения потом дорожек к avi воспользуйтесь VirtualDubMod

Знаете ли вы, что...

MediaInfo

Общее
Уникальный идентификатор : 205868612406371284938004249684012632135 (0x9AE0DA3F0820083FB9377D883AE30847)
Полное имя : F:\Night slaves aka Amore extraterrestre 1970.x264.VHSRip.kosmoaelita.mkv
Формат : Matroska
Версия формата : Version 4 / Version 2
Размер файла : 746 Мбайт
Продолжительность : 1 ч. 8 м.
Общий поток : 1525 Кбит/сек
Название фильма : Night slaves aka Amore extraterrestre / Ночное рабство / 1970 / Релиз www.kosmoaelita.com
Дата кодирования : UTC 2015-11-04 20:24:23
Программа кодирования : mkvmerge v6.6.0 ('The Edge Of The In Between') built on Dec 1 2013 17:55:00
Библиотека кодирования : libebml v1.3.0 + libmatroska v1.4.1
Видео
Идентификатор : 1
Формат : AVC
Формат/Информация : Advanced Video Codec
Профиль формата : Main@L5.1
Параметр CABAC формата : Да
Параметр ReFrames формата : 1 кадр
Идентификатор кодека : V_MPEG4/ISO/AVC
Продолжительность : 1 ч. 8 м.
Битрейт : 1175 Кбит/сек
Ширина : 720 пикселей
Высота : 540 пикселей
Соотношение сторон : 4:3
Режим частоты кадров : Постоянный
Частота кадров : 29,970 кадров/сек
Цветовое пространство : YUV
Субдискретизация насыщенности : 4:2:0
Битовая глубина : 8 бит
Тип развёртки : Прогрессивная
Бит/(Пиксели*Кадры) : 0.101
Размер потока : 575 Мбайт (77%)
Заголовок : kosmoaelita
Default : Да
Forced : Нет
Аудио #1
Идентификатор : 2
Формат : MPEG Audio
Версия формата : Version 1
Профиль формата : Layer 3
Режим : Joint stereo
Идентификатор кодека : A_MPEG/L3
Идентификатор кодека/Подсказка : MP3
Продолжительность : 1 ч. 8 м.
Вид битрейта : Постоянный
Битрейт : 128 Кбит/сек
Каналы : 2 канала
Частота : 44,1 КГц
Метод сжатия : С потерями
Размер потока : 62,6 Мбайт (8%)
Библиотека кодирования : LAME3.99r
Настройки программы : -m j -V 4 -q 2 -lowpass 17 -b 128
Язык : English
Default : Да
Forced : Нет
Аудио #2
Идентификатор : 3
Формат : AC-3
Формат/Информация : Audio Coding 3
Расширение режима : CM (complete main)
Параметр Endianness формата : Big
Идентификатор кодека : A_AC3
Продолжительность : 1 ч. 8 м.
Вид битрейта : Постоянный
Битрейт : 192 Кбит/сек
Каналы : 2 канала
Расположение каналов : Front: L R
Частота : 44,1 КГц
Битовая глубина : 16 бит
Метод сжатия : С потерями
Размер потока : 93,9 Мбайт (13%)
Язык : Italian
Default : Нет
Forced : Нет
Текст #1
Идентификатор : 4
Формат : VobSub
Режим смешивания : zlib
Идентификатор кодека : S_VOBSUB
Идентификатор кодека/Информация : The same subtitle format used on DVDs
Заголовок : Русский (kosmoaelita-karlivanovich) VobSub - перевод на слух с англ.
Язык : Russian
Default : Да
Forced : Нет
Текст #2
Идентификатор : 5
Формат : VobSub
Режим смешивания : zlib
Идентификатор кодека : S_VOBSUB
Идентификатор кодека/Информация : The same subtitle format used on DVDs
Заголовок : Русский (kosmoaelita-karlivanovich) VobSub - перевод на слух с англ.
Язык : Russian
Default : Нет
Forced : Нет
Текст #3
Идентификатор : 6
Формат : UTF-8
Идентификатор кодека : S_TEXT/UTF8
Идентификатор кодека/Информация : UTF-8 Plain Text
Заголовок : Русский (kosmoaelita-karlivanovich) srt - перевод на слух с англ.
Язык : Russian
Default : Нет
Forced : Нет

Пример субтитров

1
00:00:04,645 --> 00:00:06,741
Ну вот, Мэтт, теперь это всё твоё.
2
00:00:06,876 --> 00:00:08,805
Говорю же, мне всё
надоело!
3
00:00:08,908 --> 00:00:11,203
Я продаю тебе свою долю в бизнесе.
4
00:00:11,303 --> 00:00:14,068
- Почему?
- Потому что надоело.
5
00:00:14,183 --> 00:00:15,806
И мне больше ничего не нужно.
6
00:00:15,978 --> 00:00:17,793
Мне всё уже вот где!
-------------------
665
01:06:36,634 --> 01:06:40,902
Не знаю, он говорил, что тут
был космический корабль.
666
01:06:42,970 --> 01:06:44,588
Спенсер.
667
01:06:45,217 --> 01:06:47,217
Вызови по радио скорую.
668
01:06:47,426 --> 01:06:49,832
Пошли в машину.
669
01:06:51,719 --> 01:06:54,825
Ребята, мы сейчас вернёмся...

Скриншоты



















Скринлист



Last edited by admin on 2015-11-04 23:35; edited 3 times in total
[Profile] [PM]

admin ®

Gender: Male

Longevity: 6 years 11 months

Posts: 4725

Location: Україна

Post 04-Nov-2015 21:00 (after 20 hours)

[Quote]

Мужик попадает в автокатастрофу. Выжил, но полчерепа заменили на металлическую пластину.
Вместе с женой он останавливается заночевать в маленьком городке, где ночью творятся странные вещи.
Проснувшись ночью от шума. он видит в окно, как всех жителей городка куда-то увозят на грузовиках. Все бы ничего. но среди и его жена. Днем городок живет своей обычной жизнью, но ночью все повторяется, только жену у него отнимают уже силой. Бросившись в догонку Клей встречает странную красивую женщину, которая утверждает, что она Техник с другой планеты...
[Profile] [PM]

Guest

Gender: Unknown

Post 06-Nov-2015 11:06 (after 1 day 14 hours)

[Quote]

С отсылкой на Похитителей тел, что ли?)
 
Display posts:    
Reply to topic

Current time is: 21-Aug 01:55

All times are UTC + 3



You cannot post new topics in this forum
You cannot reply to topics in this forum
You cannot edit your posts in this forum
You cannot delete your posts in this forum
You cannot vote in polls in this forum
You cannot attach files in this forum
You cannot download files in this forum