Неандерталец / The Neanderthal Man (Ewald André Dupont / Эвальд Андре Дюпон) [1953, США, ужасы, фантастика, BDRip-1080p] ЛО (den904), СТ (kosmoaelita-karlivanovich)

Reply to topic
 
Author Message

admin ®

Gender: Male

Longevity: 8 years

Posts: 4794

Post 31-Oct-2015 23:11

[Quote]

Неандерталец / The Neanderthal Man
Страна: США, Global Productions, Wisberg-Pollexfen Productions
Жанр: ужасы, фантастика
Год выпуска: 1953
Продолжительность: 01:18:01
Перевод: ЛО den904 по субтитрам от kosmoaelita-karlivanovich
Режиссер: Ewald André Dupont / Эвальд Андре Дюпон
В ролях:
Robert Shayne ... Prof. Clifford Groves (as Robert Shane)
Joyce Terry ... Jan Groves (as Joy Terry)
Richard Crane ... Dr. Ross Harkness
Doris Merrick ... Ruth Marshall
Beverly Garland ... Nola Mason - waitress
Robert Long ... George Oakes
Tandra Quinn ... Celia - housekeeper (as Jeanette Quinn)
Lee Morgan ... Charlie Webb
Eric Colmar ... Buck Hastings
Dick Rich ... Sheriff Andy Andrews
Robert Easton ... Danny - townsman
Frank Gerstle ... Mr. Wheeler - hunter
Anthony Jochim ... Skeptical Naturalist
Marshall Bradford ... Conference Chairman
William Fawcett ... Dr. Fairchild
Описание: Однажды в калифорнийском кафе появляется взбудораженный охотник и заявляет, что только что видел в окрестностях саблезубого тигра. Подобное заявление звучит неправдоподобно, но вскоре появляется ещё один очевидец, наблюдавший доисторического зверя. Для расследования из университета штата приезжает крайне скептично настроенный доктор Харкнесс. Несчастного тигра убивают, но труп его так и не смогли найти.
Вскоре погибает пара людей. оставшаяся в живых свидетельница. описывает убийцу. как доисторического человека...

Релиз

Качество: BDRip-1080p
Формат: MKV
Видео: x264, 10500 кбит/с, 1472x1080, 23.976 к/с
Аудио 1: Русский ЛО (den904) (AC3, 2 ch, 192 Кбит/с)
Аудио 2: Английский (AC3, 2 ch, 384 Кбит/с)
Субтитры : Русские (), испанские
Работа над релизом:
Релиз kosmoaelita.
Видеоряд найден в сети.
Перевод на слух с англ. по заказу kosmoaelita - karlivanovich
Русская озвучка по заказу kosmoaelita - den904
Спонсор русской озвучки - Андрей Берг



Пример русских субтитров

Дополнительно

слоган «HALF MAN...HALF BEAST...He held them all in the grip of deadly terror...nothing could keep him from this woman he claimed as his own!»
Формат изображения: 1.37 : 1
Формат копии: 35 mm
Формат съёмок: 35 mm
Изображение: чёрно-белое
Язык: английский
Also Known As (AKA) Brazil O Homem Fera
================================================
Для удаления,добавления и извлечения дорожек в mkv используйте бесплатную портативную mkvmerge GUI 7.1.0
Для присоединения потом дорожек к avi воспользуйтесь VirtualDubMod

Отзывы

MediaInfo

Общее
Уникальный идентификатор : 185239446535409548953615813464927752937 (0x8B5BD1D79FFFE40A8DCDC360ABAFD2E9)
Полное имя : F:\The Neanderthal Man 1953.x264.BDRip.1080p.Rus.kosmoaelita.mkv
Формат : Matroska
Версия формата : Version 4 / Version 2
Размер файла : 6,16 Гбайт
Продолжительность : 1 ч. 18 м.
Общий поток : 11,3 Мбит/сек
Название фильма : The Neanderthal Man / Неандерталец / 1953 / Релиз www.kosmoaelita.com
Дата кодирования : UTC 2016-02-08 21:16:25
Программа кодирования : mkvmerge v6.6.0 ('The Edge Of The In Between') built on Dec 1 2013 17:55:00
Библиотека кодирования : libebml v1.3.0 + libmatroska v1.4.1
Attachments : POSTER The-Neanderthal-Man.jpg
Видео
Идентификатор : 1
Формат : AVC
Формат/Информация : Advanced Video Codec
Профиль формата : High@L4.1
Параметр CABAC формата : Да
Параметр ReFrames формата : 4 кадра
Идентификатор кодека : V_MPEG4/ISO/AVC
Продолжительность : 1 ч. 18 м.
Битрейт : 10,5 Мбит/сек
Ширина : 1472 пикселя
Высота : 1080 пикселей
Соотношение сторон : 4:3
Режим частоты кадров : Постоянный
Частота кадров : 23,976 (24000/1001) кадра/сек
Цветовое пространство : YUV
Субдискретизация насыщенности : 4:2:0
Битовая глубина : 8 бит
Тип развёртки : Прогрессивная
Бит/(Пиксели*Кадры) : 0.276
Размер потока : 5,61 Гбайт (91%)
Заголовок : kosmoaelita
Библиотека кодирования : x264 core 148 r2597 e86f3a1
Настройки программы : cabac=1 / ref=4 / deblock=1:0:0 / analyse=0x3:0x133 / me=umh / subme=8 / psy=1 / psy_rd=1.00:0.00 / mixed_ref=1 / me_range=16 / chroma_me=1 / trellis=1 / 8x8dct=1 / cqm=0 / deadzone=21,11 / fast_pskip=0 / chroma_qp_offset=-2 / threads=12 / lookahead_threads=2 / sliced_threads=0 / nr=0 / decimate=1 / interlaced=0 / bluray_compat=0 / constrained_intra=0 / bframes=3 / b_pyramid=2 / b_adapt=1 / b_bias=0 / direct=1 / weightb=1 / open_gop=0 / weightp=2 / keyint=250 / keyint_min=23 / scenecut=40 / intra_refresh=0 / rc_lookahead=40 / rc=2pass / mbtree=1 / bitrate=10521 / ratetol=1.0 / qcomp=0.60 / qpmin=0 / qpmax=69 / qpstep=4 / cplxblur=20.0 / qblur=0.5 / ip_ratio=1.40 / aq=1:1.00
Язык : English
Default : Да
Forced : Нет
Statistics Tags Issue : mkvmerge v8.3.0 ('Over the Horizon') 64bit 2015-09-27 21:14:14 / mkvmerge v6.6.0 ('The Edge Of The In Between') built on Dec 1 2013 17:55:00 2016-02-08 21:16:25
FromStats_BitRate : 10519252
FromStats_Duration : 01:18:01.010000000
FromStats_FrameCount : 112232
FromStats_StreamSize : 6155090797
Аудио #1
Идентификатор : 2
Формат : AC-3
Формат/Информация : Audio Coding 3
Расширение режима : CM (complete main)
Параметр Endianness формата : Big
Идентификатор кодека : A_AC3
Продолжительность : 1 ч. 18 м.
Вид битрейта : Постоянный
Битрейт : 384 Кбит/сек
Каналы : 2 канала
Расположение каналов : Front: L R
Частота : 48,0 КГц
Частота кадров : 31,250 кадров/сек (1536 spf)
Метод сжатия : С потерями
Размер потока : 214 Мбайт (3%)
Заголовок : Русский ЛО (den904 для kosmoaelita.com) - поддержка А.Берг
Язык : Russian
Default : Да
Forced : Нет
Аудио #2
Идентификатор : 3
Формат : AC-3
Формат/Информация : Audio Coding 3
Расширение режима : CM (complete main)
Параметр Endianness формата : Big
Идентификатор кодека : A_AC3
Продолжительность : 1 ч. 18 м.
Вид битрейта : Постоянный
Битрейт : 384 Кбит/сек
Каналы : 2 канала
Расположение каналов : Front: L R
Частота : 48,0 КГц
Частота кадров : 31,250 кадров/сек (1536 spf)
Метод сжатия : С потерями
Размер потока : 214 Мбайт (3%)
Язык : English
Default : Нет
Forced : Нет
Текст #1
Идентификатор : 4
Формат : VobSub
Режим смешивания : zlib
Идентификатор кодека : S_VOBSUB
Идентификатор кодека/Информация : Picture based subtitle format used on DVDs
Заголовок : Русский (kosmoaelita-karlivanovich) VobSub - перевод на слух с англ.
Язык : Russian
Default : Да
Forced : Нет
Текст #2
Идентификатор : 5
Формат : VobSub
Режим смешивания : zlib
Идентификатор кодека : S_VOBSUB
Идентификатор кодека/Информация : Picture based subtitle format used on DVDs
Заголовок : Русский (kosmoaelita-karlivanovich) VobSub - перевод на слух с англ.
Язык : Russian
Default : Нет
Forced : Нет
Текст #3
Идентификатор : 6
Формат : UTF-8
Идентификатор кодека : S_TEXT/UTF8
Идентификатор кодека/Информация : UTF-8 Plain Text
Заголовок : Русский (kosmoaelita-karlivanovich) srt - перевод на слух с англ.
Язык : Russian
Default : Нет
Forced : Нет
Текст #4
Идентификатор : 7
Формат : UTF-8
Идентификатор кодека : S_TEXT/UTF8
Идентификатор кодека/Информация : UTF-8 Plain Text
Язык : Spanish
Default : Нет
Forced : Нет

Пример субтитров

1
00:00:11,601 --> 00:00:15,595
Глобал Продакшинз
представляет
2
00:00:15,641 --> 00:00:20,595
фильм Винсберг-Полликсфен
продакшн
3
00:00:20,701 --> 00:00:25,895
"НЕАНДЕРТАЛЕЦ"
(The Neanderthal Man, 1953г)
4
00:00:28,055 --> 00:00:32,055
в ролях РОБЕРТ ШЕЙН, ДЖОЙ ТЕРРИ,
РИЧАРД КРЕЙН, ДОРИС МЕРРИК
5
00:00:51,299 --> 00:00:55,011
Перевод karlivanovich
для сайта kosmoaelita. com
6
00:01:04,655 --> 00:01:09,255
Режисер
Эвальд Андре Дюпон
7
00:01:11,260 --> 00:01:18,269
Посреди красот, каких в мире не сыскать,
возвышаются калифорнийские Сиерры.
8
00:01:18,670 --> 00:01:22,298
Рай для рыбаков и охотников,
9
00:01:23,207 --> 00:01:28,239
...не обезображенный рукой
всепроникающей цивилизации,
--------------------
И если это и было безумие,
925
01:16:46,189 --> 01:16:47,521
...что ж...
926
01:16:48,993 --> 01:16:51,554
...когда Боги хотят погубить кого-то,
927
01:16:52,497 --> 01:16:54,658
...они отнимают у него разум.
928
01:17:09,617 --> 01:17:11,108
Так...
929
01:17:12,087 --> 01:17:13,419
...будет...
930
01:17:14,523 --> 01:17:17,151
...лучше...

Скриншоты











Скринлист



Last edited by admin on 2016-02-09 00:31; edited 6 times in total
[Profile] [PM]

Трамвай-фильм

Gender: Male

Longevity: 6 years 1 month

Posts: 1863

Location: Россия

Post 31-Oct-2015 23:40 (after 28 minutes)

[Quote]

Хм, смахивает на "монстр в кампусе"
[Profile] [PM]

admin ®

Gender: Male

Longevity: 8 years

Posts: 4794

Post 01-Nov-2015 22:57 (after 23 hours)

[Quote]

Безумный доктор. чтобы доказать, что лервые древние люди были не глупее современных, проводит опыты над мозгом, дабы реактивировать спящие клетки, которые хранят в памяти все свои переживания от зари человеческой истории. Но вместе с низменными эмоциями меняется и физическая сущность. Кошка, например. превращается в саблезубого тигра... смайлик+
[Profile] [PM]

Guest

Gender: Unknown

Post 04-Feb-2016 13:55 (after 3 months 2 days)

[Quote]

Как хорошо, что есть предпросмотр :o)
 

admin ®

Gender: Male

Longevity: 8 years

Posts: 4794

Post 09-Feb-2016 00:32 (after 4 days)

[Quote]

Добавлена озвучка от den904
[Profile] [PM]

pompilius

Gender: Male

Longevity: 2 years 10 months

Posts: 369

Post 13-Jun-2018 22:10 (after 2 years 4 months)

[Quote]

У кого нибудь есть фильм?
[Profile] [PM]

snorrinort

Gender: Male

Longevity: 3 years 4 months

Posts: 201

Post 14-Jun-2018 10:32 (after 12 hours)

[Quote]

вечером посмотрю. вроде есть
[Profile] [PM]

pompilius

Gender: Male

Longevity: 2 years 10 months

Posts: 369

Post 14-Jun-2018 20:10 (after 9 hours)

[Quote]

Было бы хорошо
[Profile] [PM]
Display posts:    
Reply to topic

Current time is: 25-Sep 16:30

All times are UTC + 3



You cannot post new topics in this forum
You cannot reply to topics in this forum
You cannot edit your posts in this forum
You cannot delete your posts in this forum
You cannot vote in polls in this forum
You cannot attach files in this forum
You cannot download files in this forum