Космический корабль Орион / Raumpatrouille / Raumpatrouille Orion - Rucksturz ins Kino / Space Patrol Orion (Майкл Браун / Michael Braun) [1966-2003 г., фантастика, комедия, DVDRip] ЛО (slavnus)

Reply to topic
 
Author Message

Guest ®

Gender: Unknown

Post 22-Sep-2012 09:04

[Quote]

Космический корабль Орион / Raumpatrouille / Raumpatrouille Orion - Rucksturz ins Kino / Space Patrol Orion
Год выпуска: 1966-2003
Жанр: фантастика, комедия
Продолжительность: 01:29:29
Перевод: Любительский одноголосый (slavnus)
Режиссер: Майкл Браун / Michael Braun
В ролях: Хайнц Бек, Гюнтер Бекер, Фридрих Бекхаус, Зигриг вон Косел, Херберт Флайшманн, Норберт Гастелл
Описание: фильм смонтирован из серий одноименного сериала 1966 года
В далёком будущем космонавты корабля Орион несут свою службу на космической вахте.
Но иногда случаются непредвиденные ситуации, и в этот раз им тоже предстоит попасть в одну из них, угрожающую жизни людей планеты Земля...

Сериал 1966 года
http://kosmoaelita.com/viewtopic.php?t=586

Качество: DVDRip
Формат: MKV
Видео кодек: DivX
Аудио кодек: AC3
Видео: 720x540 25fps 997 кб/с
Аудио 1: Русский ЛО (slavnus)(AC3, 2 ch, 192 Кбит/с)
Аудио 2: Английский (AC3, 2 ch, 192 Кбит/с)
Субтитры : Анлийские ()

Пример русского перевода

Работа над релизом:

Дополнительно

Also Known As (AKA)
"Őrjárat a kozmoszban - Az Orion űrhajó fantasztikus kalandjai" Hungary
"Ürjárörök - Az Orion ürhajó fantasztikus kalandjai" Hungary (rerun title)
"Commando spatial - La fantastique aventure du vaisseau Orion" France
"Le avventure dell'astronave Orion" Italy (series title)
"Raumpatrouille" West Germany (short title)
"Raumpatrouille - Die Abenteuer des schnellen Raumkreuzers Orion" West Germany (rerun title)
"Raumpatrouille Orion" Germany (DVD box title)
"Raumschiff Orion" West Germany (informal title)
"Rymdpatrullen" Sweden (informal literal title)

MediaInfo

Общее
Уникальный идентификатор : 228401449108372734650992951143065135497 (0xABD484DE5BD6EF70805E3D0D285F2989)
Полное имя : F:\Raumpatrouille Orion Movie 1966-2003.XviD.DVDRip.Rus.kosmoaelita.mkv
Формат : Matroska
Версия формата : Version 4 / Version 2
Размер файла : 1,14 Гбайт
Продолжительность : 1 ч. 29 м.
Общий поток : 1831 Кбит/сек
Название фильма : Raumpatrouille Orion 1966-2003
Дата кодирования : UTC 2016-08-07 11:45:36
Программа кодирования : mkvmerge v6.6.0 ('The Edge Of The In Between') built on Dec 1 2013 17:55:00
Библиотека кодирования : libebml v1.3.0 + libmatroska v1.4.1
Attachments : POSTER.jpg
Видео
Идентификатор : 1
Формат : MPEG-4 Visual
Параметр BVOP формата : Да
Параметр QPel формата : Нет
Параметр GMC формата : Без точки перехода
Параметр матрицы формата : Default (H.263)
Идентификатор кодека : V_MS/VFW/FOURCC / DX50
Идентификатор кодека/Подсказка : DivX 5
Продолжительность : 1 ч. 29 м.
Битрейт : 962 Кбит/сек
Ширина : 720 пикселей
Высота : 540 пикселей
Соотношение сторон : 4:3
Режим частоты кадров : Постоянный
Частота кадров : 25,000 кадров/сек
Цветовое пространство : YUV
Субдискретизация насыщенности : 4:2:0
Битовая глубина : 8 бит
Тип развёртки : Прогрессивная
Метод сжатия : С потерями
Бит/(Пиксели*Кадры) : 0.099
Размер потока : 616 Мбайт (53%)
Библиотека кодирования : DivX 3330
Default : Да
Forced : Нет
Аудио #1
Идентификатор : 2
Формат : AC-3
Формат/Информация : Audio Coding 3
Расширение режима : CM (complete main)
Параметр Endianness формата : Big
Идентификатор кодека : A_AC3
Продолжительность : 1 ч. 29 м.
Вид битрейта : Постоянный
Битрейт : 192 Кбит/сек
Каналы : 2 канала
Расположение каналов : Front: L R
Частота : 48,0 КГц
Частота кадров : 31,250 кадров/сек (1536 spf)
Метод сжатия : С потерями
Размер потока : 123 Мбайт (10%)
Заголовок : Русский ЛО (slavnus)
Язык : Russian
Default : Да
Forced : Нет
Аудио #2
Идентификатор : 4
Формат : AC-3
Формат/Информация : Audio Coding 3
Расширение режима : CM (complete main)
Параметр Endianness формата : Big
Идентификатор кодека : A_AC3
Продолжительность : 1 ч. 29 м.
Вид битрейта : Постоянный
Битрейт : 448 Кбит/сек
Каналы : 6 каналов
Расположение каналов : Front: L C R, Side: L R, LFE
Частота : 48,0 КГц
Частота кадров : 31,250 кадров/сек (1536 spf)
Метод сжатия : С потерями
Размер потока : 287 Мбайт (24%)
Заголовок : German 5.1 AC3 448
Язык : German
Default : Нет
Forced : Нет
Аудио #3
Идентификатор : 5
Формат : AC-3
Формат/Информация : Audio Coding 3
Расширение режима : CM (complete main)
Параметр Endianness формата : Big
Идентификатор кодека : A_AC3
Продолжительность : 1 ч. 29 м.
Вид битрейта : Постоянный
Битрейт : 192 Кбит/сек
Каналы : 2 канала
Расположение каналов : Front: L R
Частота : 48,0 КГц
Частота кадров : 31,250 кадров/сек (1536 spf)
Метод сжатия : С потерями
Размер потока : 123 Мбайт (10%)
Заголовок : German 2.0
Язык : German
Default : Нет
Forced : Нет
Текст
Идентификатор : 3
Формат : UTF-8
Идентификатор кодека : S_TEXT/UTF8
Идентификатор кодека/Информация : UTF-8 Plain Text
Язык : English
Default : Да
Forced : Нет

Скриншоты


Скринлист

cd Рип дополнительно залит на ОБЛАКО cd2
 

kandid

Gender: Male

Longevity: 3 years 7 months

Posts: 22

Location: Москва

Post 19-Aug-2016 12:32 (after 3 years 10 months)

[Quote]

Довольно качественная пародия на Star Trek, да и спецэффекты неплохие, для того времени. Жаль, что черно-белый.
К концу актеры уже забывают об иронии и чаще играют всерьез.
Коврики и блинчик, если кому надо:
http://sendfile.su/1258441
http://sendfile.su/1258442
http://sendfile.su/1258443
[Profile] [PM]
Quick Reply

Name:

            
Heads necessary to send messages to enable JavaScript
Display posts:    
Reply to topic

Current time is: 17-Nov 17:29

All times are UTC + 3



You cannot post new topics in this forum
You can reply to topics in this forum
You cannot edit your posts in this forum
You cannot delete your posts in this forum
You cannot vote in polls in this forum
You cannot attach files in this forum
You cannot download files in this forum