Звездный крейсер: Апокалипсис / Starship: Apocalypse / Starship Apocalypse (Neil Johnson / Нил Джонсон) [2015, США, фантастика, боевик, DVDRip] ЛД (Den904 & DeadSno), СТ (kosmoaelita-karlivanovich)

Ответить на тему
Статистика раздачи
Размер:  1,44 GB   |    Зарегистрирован:  2 года 9 месяцев   |    Скачан:  3 раза

Полного источника не было: 2 года 2 месяца

 
 
 
 
Автор Сообщение

admin ®

Пол: Мужской

Стаж: 6 лет 2 месяца

Сообщений: 4731

Откуда: Україна

Создавать темы 15-Окт-2015 02:16

[Цитировать]

Звездный крейсер: Апокалипсис / Starship: Apocalypse / Starship Apocalypse
Страна: США, Morphius Film
Жанр: фантастика, боевик
Год выпуска: 2015
Продолжительность: 01:26:33
Перевод: ЛД (Den904 & DeadSno) по субтитрам от kosmoaelita-karlivanovich
Режиссер: Neil Johnson / Нил Джонсон
В ролях:
Darren Jacobs ... John Worthy
Emii ... Jolli (as Emily Rose Morrison)
Brooke Lewis ... Staris
E.J. De la Pena ... Torgus (as E.J. De La Pena)
Ralph Guzzo ... General Gustav
Christina Marie Moses ... Diana
Lynn Ayala ... Marta
Joshua Paul Miller ... Roartak
Breck Gallini ... Seethus
Rest of cast listed alphabetically:
John Alton ... Decon Quinn
Christian Anderson ... Drayson
Rajia Baroudi ... Czarina
Tracey Birdsall ... Deliverance Computer (voice)
Brad Bishop ... Haroldus
Daniel Bridges ... Rimmer
Описание: TЛейтенант Джон Уорти, капитан космического крейсера под названием Один. Именно этот звездный истребитель считается самым мощным звездолетом во всей Вселенной – он может разрушить целые миры. Лейтенант Уорти гордится, что именно он управляет таким мощным кораблем. А совсем недавно под его чутким предводительством, его команда смогла спасти всю Галактику от неминуемой гибели. Дело в том, что в очередной раз начались распри между Планетарной Федерацией и расой Терра Ностра. Такой войны Вселенная еще не видела. Да что там, бои были настолько жестокими, что не шлось речи об обитателях Галактики, воины безжалостно уничтожили целых две планеты, и так могло продолжаться дальше, пока от Вселенной ничего не осталось. Джон не мог оставаться в стороне от всего происходящего. Он решил вмешаться в ситуацию, но на его пути возник хитрый и беспринципный генерал Густав. Он понял, что Уорти может помешать осуществлению его гнусных планов, и намерен для начала уничтожить его вместе со всей командой. Более того, Густав пошел на самый низкий поступок, который только мог совершить настоящий военный – он похитил семью лейтенанта и стал его этим шантажировать. Однако это не сломило главного героя, и он все же настоял на том, чтобы военные действия были прекращены. Но с окончанием войны, пришла новая беда – появилась новая раса гуманоидов, которая несет смертельную опасность человеку..
Релиз

Качество: DVDRip
Формат: MKV
Видео: xviD, 1959 кбит/с, 720x364, 25 к/с,
Аудио 1: Русский ЛД (Den904, DeadSno) (AC3, 2 ch, 192 Кбит/с)
Аудио 2: Английский (AC3, 2 ch, 192 Кбит/с)
Субтитры : Русские (kosmoaelita-karlivanovich)
Работа над релизом:
Релиз kosmoaelita.
Видеоряд найден в сети.
Перевод на слух с англ. по заказу kosmoaelita - karlivanovich
Русская озвучка по заказу kosmoaelita - den904 & DeadSno
Поддержка - Андрей Берг и kosmoaelita



Пример русских субтитров и озвучки

Дополнительно

World-wide (working title) (English title) Starship: The Coming Darkness
================================================

Знаете ли вы, что...

MediaInfo

Общее
Уникальный идентификатор : 249632592507522440782747054311635508237 (0xBBCD7D0E5ED4C266875750EDF16D5C0D)
Полное имя : F:\Starship Apocalypse 2015.XviD.DVDRip.Rus.kosmoaelita.mkv
Формат : Matroska
Версия формата : Version 4 / Version 2
Размер файла : 1,44 Гбайт
Продолжительность : 1 ч. 26 м.
Общий поток : 2387 Кбит/сек
Название фильма : Starship Apocalypse 2015 / Релиз www.kosmoaelita.com
Дата кодирования : UTC 2016-02-09 18:40:59
Программа кодирования : mkvmerge v6.6.0 ('The Edge Of The In Between') built on Dec 1 2013 17:55:00
Библиотека кодирования : libebml v1.3.0 + libmatroska v1.4.1
Attachments : poster Starship-Apocalypse-2015.jpg
Видео
Идентификатор : 1
Формат : MPEG-4 Visual
Профиль формата : Advanced Simple@L5
Параметр BVOP формата : 2
Параметр QPel формата : Нет
Параметр GMC формата : Без точки перехода
Параметр матрицы формата : Default (H.263)
Режим смешивания : Сжатый битовый поток
Идентификатор кодека : V_MS/VFW/FOURCC / XVID
Идентификатор кодека/Подсказка : XviD
Продолжительность : 1 ч. 26 м.
Битрейт : 1956 Кбит/сек
Ширина : 720 пикселей
Высота : 364 пикселя
Соотношение сторон : 1,978
Режим частоты кадров : Постоянный
Частота кадров : 25,000 кадров/сек
Цветовое пространство : YUV
Субдискретизация насыщенности : 4:2:0
Битовая глубина : 8 бит
Тип развёртки : Прогрессивная
Метод сжатия : С потерями
Бит/(Пиксели*Кадры) : 0.299
Размер потока : 1,18 Гбайт (82%)
Заголовок : kosmoaelita.com
Библиотека кодирования : XviD 66
Default : Да
Forced : Нет
Аудио #1
Идентификатор : 2
Формат : AC-3
Формат/Информация : Audio Coding 3
Расширение режима : CM (complete main)
Параметр Endianness формата : Big
Идентификатор кодека : A_AC3
Продолжительность : 1 ч. 26 м.
Вид битрейта : Постоянный
Битрейт : 192 Кбит/сек
Каналы : 2 канала
Расположение каналов : Front: L R
Частота : 48,0 КГц
Частота кадров : 31,250 кадров/сек (1536 spf)
Метод сжатия : С потерями
Размер потока : 119 Мбайт (8%)
Заголовок : Русский ЛД (Den904 & DeadSno)
Язык : Russian
Default : Да
Forced : Нет
Аудио #2
Идентификатор : 3
Формат : AC-3
Формат/Информация : Audio Coding 3
Расширение режима : CM (complete main)
Параметр Endianness формата : Big
Идентификатор кодека : A_AC3
Продолжительность : 1 ч. 26 м.
Вид битрейта : Постоянный
Битрейт : 192 Кбит/сек
Каналы : 2 канала
Расположение каналов : Front: L R
Частота : 48,0 КГц
Частота кадров : 31,250 кадров/сек (1536 spf)
Метод сжатия : С потерями
Размер потока : 119 Мбайт (8%)
Язык : English
Default : Нет
Forced : Нет
Текст #1
Идентификатор : 4
Формат : VobSub
Режим смешивания : zlib
Идентификатор кодека : S_VOBSUB
Идентификатор кодека/Информация : Picture based subtitle format used on DVDs
Заголовок : Русский (kosmoaelita-karlivanovich) VobSub - перевод на слух с англ.
Язык : Russian
Default : Да
Forced : Нет
Текст #2
Идентификатор : 5
Формат : VobSub
Режим смешивания : zlib
Идентификатор кодека : S_VOBSUB
Идентификатор кодека/Информация : Picture based subtitle format used on DVDs
Заголовок : Русский (kosmoaelita-karlivanovich) VobSub - перевод на слух с англ.
Язык : Russian
Default : Нет
Forced : Нет
Текст #3
Идентификатор : 6
Формат : UTF-8
Идентификатор кодека : S_TEXT/UTF8
Идентификатор кодека/Информация : UTF-8 Plain Text
Заголовок : Русский (kosmoaelita-karlivanovich) srt - перевод на слух с англ.
Язык : Russian
Default : Нет
Forced : Нет

Пример субтитров

1
00:00:07,931 --> 00:00:12,014
Halcyon International
2
00:00:22,331 --> 00:00:29,714
Эмпайр Моушн Пикчерз
3
00:00:35,031 --> 00:00:38,714
Исторический архив. Запись 6638А.
Гибель Второй Федерации.
4
00:00:43,253 --> 00:00:45,567
Сколько всего произошло...
5
00:00:53,506 --> 00:00:55,506
Оглядываясь назад...
6
00:00:56,899 --> 00:00:58,899
...на то...
7
00:01:01,404 --> 00:01:03,404
...на то как это было...
8
00:01:09,165 --> 00:01:12,958
Мой хороший друг Дрейсон
предупреждал меня.
9
00:01:16,171 --> 00:01:18,171
Он знал...
10
00:01:20,463 --> 00:01:22,463
Он всё предвидел.
----------------------
888
01:20:33,133 --> 01:20:35,133
Вот мы и встретились.
889
01:20:41,377 --> 01:20:43,377
Помнишь, как ты умирала?
890
01:20:43,836 --> 01:20:50,728
Помню, что было больно,
а потом я очнулась.
891
01:20:56,460 --> 01:20:58,460
Ротак...

Скриншоты













Скринлист

cd Рип дополнительно залит на ОБЛАКО cd2
Starship Apocalypse 2015.XviD.DVDRip.Rus.kosmoaelita.mkv.torrent
Торрент: Зарегистрирован [ 2016-02-09 22:30 ]

Скачать .torrent

Скачать

58 KB

Статус: проверено
Скачан: 3 раз
Размер: 1,44 GB
 


Последний раз редактировалось: admin (2016-08-03 16:39), всего редактировалось 12 раз(а)
[Профиль] [ЛС]

admin ®

Пол: Мужской

Стаж: 6 лет 2 месяца

Сообщений: 4731

Откуда: Україна

Создавать темы 15-Окт-2015 02:16 (спустя 37 секунд)

[Цитировать]

Первая часть
http://kosmoaelita.com/viewtopic.php?t=1860
[Профиль] [ЛС]

admin ®

Пол: Мужской

Стаж: 6 лет 2 месяца

Сообщений: 4731

Откуда: Україна

Создавать темы 09-Фев-2016 22:32 (спустя 3 месяца 25 дней)

[Цитировать]

Добавлена русская озвучка (Den904 & DeadSno)
[Профиль] [ЛС]
Показать сообщения:    
Ответить на тему

Текущее время: 14-Ноя 05:56

Часовой пояс: UTC + 3:30



Вы не можете начинать темы
Вы не можете отвечать на сообщения
Вы не можете редактировать свои сообщения
Вы не можете удалять свои сообщения
Вы не можете голосовать в опросах
Вы не можете прикреплять файлы к сообщениям
Вы можете скачивать файлы