Звездный крейсер: Апокалипсис / Starship: Apocalypse / Starship Apocalypse (Neil Johnson / Нил Джонсон) [2015, США, фантастика, боевик, DVDRip] ЛД (Den904 & DeadSno), ЛД (Parovoz Production), СТ (kosmoaelita-karlivanovich)

Reply to topic
DL-List and Torrent activity
Size:  1.44 GB   |    Registered:  3 years 7 months   |    Completed:  3 times

Seeder not seen: 3 years

 
 
 
 
Author Message

admin ®

Gender: Male

Longevity: 7 years

Posts: 4725

Location: Україна

Post 15-Oct-2015 01:46

[Quote]

Звездный крейсер: Апокалипсис / Starship: Apocalypse / Starship Apocalypse
Страна: США, Morphius Film
Жанр: фантастика, боевик
Год выпуска: 2015
Продолжительность: 01:26:33
Перевод 1: ЛД (Den904 & DeadSno) по субтитрам от kosmoaelita-karlivanovich
Перевод 2: ЛД (Parovoz Production)
Режиссер: Neil Johnson / Нил Джонсон
В ролях:
Darren Jacobs ... John Worthy
Emii ... Jolli (as Emily Rose Morrison)
Brooke Lewis ... Staris
E.J. De la Pena ... Torgus (as E.J. De La Pena)
Ralph Guzzo ... General Gustav
Christina Marie Moses ... Diana
Lynn Ayala ... Marta
Joshua Paul Miller ... Roartak
Breck Gallini ... Seethus
Rest of cast listed alphabetically:
John Alton ... Decon Quinn
Christian Anderson ... Drayson
Rajia Baroudi ... Czarina
Tracey Birdsall ... Deliverance Computer (voice)
Brad Bishop ... Haroldus
Daniel Bridges ... Rimmer
Описание: TЛейтенант Джон Уорти, капитан космического крейсера под названием Один. Именно этот звездный истребитель считается самым мощным звездолетом во всей Вселенной – он может разрушить целые миры. Лейтенант Уорти гордится, что именно он управляет таким мощным кораблем. А совсем недавно под его чутким предводительством, его команда смогла спасти всю Галактику от неминуемой гибели. Дело в том, что в очередной раз начались распри между Планетарной Федерацией и расой Терра Ностра. Такой войны Вселенная еще не видела. Да что там, бои были настолько жестокими, что не шлось речи об обитателях Галактики, воины безжалостно уничтожили целых две планеты, и так могло продолжаться дальше, пока от Вселенной ничего не осталось. Джон не мог оставаться в стороне от всего происходящего. Он решил вмешаться в ситуацию, но на его пути возник хитрый и беспринципный генерал Густав. Он понял, что Уорти может помешать осуществлению его гнусных планов, и намерен для начала уничтожить его вместе со всей командой. Более того, Густав пошел на самый низкий поступок, который только мог совершить настоящий военный – он похитил семью лейтенанта и стал его этим шантажировать. Однако это не сломило главного героя, и он все же настоял на том, чтобы военные действия были прекращены. Но с окончанием войны, пришла новая беда – появилась новая раса гуманоидов, которая несет смертельную опасность человеку..
Релиз

Качество: DVDRip
Формат: MKV
Видео: xviD, 1959 кбит/с, 720x364, 25 к/с,
Аудио 1: Русский ЛД (Den904, DeadSno) (AC3, 2 ch, 192 Кбит/с)
Аудио 2: Русский ЛД (Parovoz Production) (AC3, 2 ch, 192 Кбит/с)
Аудио 3: Английский (AC3, 2 ch, 192 Кбит/с)
Субтитры : Русские (kosmoaelita-karlivanovich)
Работа над релизом:
Релиз kosmoaelita.
Видеоряд найден в сети.
Перевод на слух с англ. по заказу kosmoaelita - karlivanovich
Русская озвучка по заказу kosmoaelita - den904 & DeadSno
Поддержка - Андрей Берг и kosmoaelita



Пример русских субтитров и озвучки

Дополнительно

World-wide (working title) (English title) Starship: The Coming Darkness
================================================

Знаете ли вы, что...

MediaInfo

Общее
Уникальный идентификатор : 197796522962503925200922325397746374157 (0x94CE398275D700478BC08835D93E560D)
Полное имя : F:\Starship Apocalypse 2015.XviD.DVDRip.2xRus.kosmoaelita.mkv
Формат : Matroska
Версия формата : Version 4
Размер файла : 1,56 Гбайт
Продолжительность : 1 ч. 26 м.
Общий поток : 2580 Кбит/сек
Название фильма : Starship Apocalypse 2015 / Релиз www.kosmoaelita.com
Дата кодирования : UTC 2016-08-02 23:29:02
Программа кодирования : mkvmerge v6.6.0 ('The Edge Of The In Between') built on Dec 1 2013 17:55:00
Библиотека кодирования : libebml v1.3.0 + libmatroska v1.4.1
Attachments : poster Starship-Apocalypse-2015.jpg
Видео
Идентификатор : 1
Формат : MPEG-4 Visual
Профиль формата : Advanced Simple@L5
Настройки формата : BVOP2
Параметр BVOP формата : 2
Параметр QPel формата : Нет
Параметр GMC формата : Без точки перехода
Параметр матрицы формата : Default (H.263)
Режим смешивания : Сжатый битовый поток
Идентификатор кодека : V_MS/VFW/FOURCC / XVID
Идентификатор кодека/Подсказка : XviD
Продолжительность : 1 ч. 26 м.
Битрейт : 1952 Кбит/сек
Ширина : 720 пикселей
Высота : 364 пикселя
Соотношение сторон : 1,978
Режим частоты кадров : Постоянный
Частота кадров : 25,000 кадров/сек
Цветовое пространство : YUV
Субдискретизация насыщенности : 4:2:0
Битовая глубина : 8 бит
Тип развёртки : Прогрессивная
Метод сжатия : С потерями
Бит/(Пиксели*Кадры) : 0.298
Размер потока : 1,18 Гбайт (76%)
Заголовок : kosmoaelita.com
Библиотека кодирования : XviD 66
Default : Да
Forced : Нет
Аудио #1
Идентификатор : 2
Формат : AC-3
Формат/Информация : Audio Coding 3
Коммерческое название : Dolby Digital
Идентификатор кодека : A_AC3
Продолжительность : 1 ч. 26 м.
Вид битрейта : Постоянный
Битрейт : 192 Кбит/сек
Каналы : 2 канала
Channel layout : L R
Частота : 48,0 КГц
Частота кадров : 31,250 кадров/сек (1536 SPF)
Битовая глубина : 16 бит
Метод сжатия : С потерями
Размер потока : 119 Мбайт (7%)
Заголовок : Русский ЛД (Den904 & DeadSno) для kosmoaelita.com
Язык : Russian
ServiceKind/String : Complete Main
Default : Да
Forced : Нет
Аудио #2
Идентификатор : 3
Формат : AC-3
Формат/Информация : Audio Coding 3
Коммерческое название : Dolby Digital
Идентификатор кодека : A_AC3
Продолжительность : 1 ч. 26 м.
Вид битрейта : Постоянный
Битрейт : 192 Кбит/сек
Каналы : 2 канала
Channel layout : L R
Частота : 48,0 КГц
Частота кадров : 31,250 кадров/сек (1536 SPF)
Битовая глубина : 16 бит
Метод сжатия : С потерями
Размер потока : 119 Мбайт (7%)
Заголовок : Русский ЛД (Parovoz Production)
Язык : Russian
ServiceKind/String : Complete Main
Default : Нет
Forced : Нет
Аудио #3
Идентификатор : 4
Формат : AC-3
Формат/Информация : Audio Coding 3
Коммерческое название : Dolby Digital
Идентификатор кодека : A_AC3
Продолжительность : 1 ч. 26 м.
Вид битрейта : Постоянный
Битрейт : 192 Кбит/сек
Каналы : 2 канала
Channel layout : L R
Частота : 48,0 КГц
Частота кадров : 31,250 кадров/сек (1536 SPF)
Битовая глубина : 16 бит
Метод сжатия : С потерями
Размер потока : 119 Мбайт (7%)
Язык : English
ServiceKind/String : Complete Main
Default : Нет
Forced : Нет
Текст #1
Идентификатор : 5
Формат : VobSub
Режим смешивания : zlib
Идентификатор кодека : S_VOBSUB
Идентификатор кодека/Информация : Picture based subtitle format used on DVDs
Заголовок : Русский (kosmoaelita-karlivanovich) VobSub - перевод на слух с англ.
Язык : Russian
Default : Да
Forced : Нет
Текст #2
Идентификатор : 6
Формат : VobSub
Режим смешивания : zlib
Идентификатор кодека : S_VOBSUB
Идентификатор кодека/Информация : Picture based subtitle format used on DVDs
Заголовок : Русский (kosmoaelita-karlivanovich) VobSub - перевод на слух с англ.
Язык : Russian
Default : Нет
Forced : Нет
Текст #3
Идентификатор : 7
Формат : UTF-8
Идентификатор кодека : S_TEXT/UTF8
Идентификатор кодека/Информация : UTF-8 Plain Text
Заголовок : Русский (kosmoaelita-karlivanovich) srt - перевод на слух с англ.
Язык : Russian
Default : Нет
Forced : Нет

Пример субтитров

1
00:00:07,931 --> 00:00:12,014
Halcyon International
2
00:00:22,331 --> 00:00:29,714
Эмпайр Моушн Пикчерз
3
00:00:35,031 --> 00:00:38,714
Исторический архив. Запись 6638А.
Гибель Второй Федерации.
4
00:00:43,253 --> 00:00:45,567
Сколько всего произошло...
5
00:00:53,506 --> 00:00:55,506
Оглядываясь назад...
6
00:00:56,899 --> 00:00:58,899
...на то...
7
00:01:01,404 --> 00:01:03,404
...на то как это было...
8
00:01:09,165 --> 00:01:12,958
Мой хороший друг Дрейсон
предупреждал меня.
9
00:01:16,171 --> 00:01:18,171
Он знал...
10
00:01:20,463 --> 00:01:22,463
Он всё предвидел.
----------------------
888
01:20:33,133 --> 01:20:35,133
Вот мы и встретились.
889
01:20:41,377 --> 01:20:43,377
Помнишь, как ты умирала?
890
01:20:43,836 --> 01:20:50,728
Помню, что было больно,
а потом я очнулась.
891
01:20:56,460 --> 01:20:58,460
Ротак...

Скриншоты













Скринлист

cd Рип дополнительно залит на ОБЛАКО cd2
Starship Apocalypse 2015.XviD.DVDRip.Rus.kosmoaelita.mkv.torrent
Torrent: Registered [ 2016-02-09 22:00 ]

Download .torrent

Download

58 KB

Status: checked
Completed: 3 times
Size: 1.44 GB
 


Last edited by admin on 2016-08-03 16:09; edited 12 times in total
[Profile] [PM]

admin ®

Gender: Male

Longevity: 7 years

Posts: 4725

Location: Україна

Post 15-Oct-2015 01:46 (after 37 seconds)

[Quote]

Первая часть
http://kosmoaelita.com/viewtopic.php?t=1860
[Profile] [PM]

admin ®

Gender: Male

Longevity: 7 years

Posts: 4725

Location: Україна

Post 09-Feb-2016 22:02 (after 3 months 25 days)

[Quote]

Добавлена русская озвучка (Den904 & DeadSno)
[Profile] [PM]
Display posts:    
Reply to topic

Current time is: 19-Sep 00:55

All times are UTC + 3



You cannot post new topics in this forum
You cannot reply to topics in this forum
You cannot edit your posts in this forum
You cannot delete your posts in this forum
You cannot vote in polls in this forum
You cannot attach files in this forum
You can download files in this forum