Существо из прошлого / Женщина-монстр / The She-Creature (Edward L. Cahn / Эдвард Л. Кан) [1956, США, Фантастика, ужасы, фэнтези, мелодрама, DVDRip] (СТ : kosmoaelita-Severnyj)

Ответить на тему
 
Автор Сообщение

admin ®

Пол: Мужской

Стаж: 5 лет

Сообщений: 4750

Откуда: Україна

Создавать темы 13-Окт-2015 11:37

[Цитировать]

Существо из прошлого / Женщина-монстр / The She-Creature
Страна: США, Golden State Productions, Selma Enterprises
Жанр: Фантастика, ужасы, фэнтези, мелодрама
Год выпуска: 1956
Продолжительность: 01:17:25
Перевод: Субтитры _ kosmoaelita-Severnyj
Режиссер: Edward L. Cahn / Эдвард Л. Кан
В ролях:
Chester Morris ... Dr. Carlo Lombardi
Tom Conway ... Timothy Chappel
Cathy Downs ... Dorothy Chappel
Lance Fuller ... Dr. Ted Erickson
Ron Randell ... Police Lt. Ed James
Frieda Inescort ... Mrs. Chappel
Marla English ... Andrea Talbott / Elizabeth Wetherby
Frank Jenks ... Plainclothes Sgt. with Lt. James
El Brendel ... Olaf
Paul Dubov ... Johnny
William Hudson ... Bob (as Bill Hudson)
Flo Bert ... Marta
Jeanne Evans ... Mrs. Brown
Kenneth MacDonald ... Police Doctor with Prof. Anderson
Jack Mulhall ... Lombardi's Lawyer
Описание: Доктор Карло Ломбарди, мастер гипноза, заявляет, что дух какой-либо из прежних реинкарнаций человека вполне может снова обрести физическую оболочку. Поначалу научное сообщество считает такую теорию неудачной шуткой, но когда Ломбарди превращает свою ассистентку в доисторического морского монстра, становится не до смеха.
Релиз

Качество: DVDRip
Формат: MKV
Видео: x264, 1300 кбит/с, 710x540@710x480, 29,970 к/с
Аудио 2: Английский (AC3, 2 ch, 192 Кбит/с)
Субтитры : Русские (Severnyj)
Работа над релизом:
Релиз kosmoaelita.
Видеоряд найден на синемагеддоне.
Перевод на слух с англ. по заказу kosmoaelita - Severnyj



Пример русских субтитров

Дополнительно

слоган «Hypnotized! Reincarnated as a monster from hell!»
бюджет $100 000
Also Known As (AKA) Germany (TV title) Geschöpf des Schreckens
Spain La criatura
Greece (DVD title) Thilykos daimonas
Формат изображения: 1.85 : 1
Формат копии: 35 mm
Формат съёмок: 35 mm
Изображение: чёрно-белое
Язык: английский
================================================
Для Украины: рип и оригинальный ДВД дополнительно залиты в файлохранилище
Для удаления,добавления и извлечения дорожек в mkv используйте бесплатную портативную mkvmerge GUI 7.1.0
Для присоединения потом дорожек к avi воспользуйтесь VirtualDubMod

Рецензия

MediaInfo

Общее
Уникальный идентификатор : 254648690044606433440871227590348720579 (0xBF938DC2455BA13FA16ED2E15FC149C3)
Полное имя : F:\The She-Creature 1956.x264.DVDRip.kosmoaelita.mkv
Формат : Matroska
Версия формата : Version 4 / Version 2
Размер файла : 689 Мбайт
Продолжительность : 1 ч. 17 м.
Общий поток : 1244 Кбит/сек
Название фильма : The She-Creature / Существо из прошлого или Женщина-монстр / 1956 / Релиз kosmoaelita.com
Дата кодирования : UTC 2015-10-13 21:33:15
Программа кодирования : mkvmerge v6.6.0 ('The Edge Of The In Between') built on Dec 1 2013 17:55:00
Библиотека кодирования : libebml v1.3.0 + libmatroska v1.4.1
DURATION : 01:17:25.048000000
NUMBER_OF_FRAMES : 111960
NUMBER_OF_BYTES : 606887499
_STATISTICS_WRITING_APP : mkvmerge v7.8.0 ('River Man') 32bit built on Mar 27 2015 16:18:02
_STATISTICS_WRITING_DATE_UTC : 2015-06-19 00:05:00
_STATISTICS_TAGS : BPS DURATION NUMBER_OF_FRAMES NUMBER_OF_BYTES
Видео
Идентификатор : 1
Формат : AVC
Формат/Информация : Advanced Video Codec
Профиль формата : High@L3.0
Параметр CABAC формата : Да
Параметр ReFrames формата : 3 кадра
Идентификатор кодека : V_MPEG4/ISO/AVC
Продолжительность : 1 ч. 17 м.
Битрейт : 1027 Кбит/сек
Номинальный битрейт : 1300 Кбит/сек
Ширина : 710 пикселей
Высота : 480 пикселей
Соотношение сторон : 4:3
Режим частоты кадров : Постоянный
Частота кадров : 29,970 кадров/сек
Цветовое пространство : YUV
Субдискретизация насыщенности : 4:2:0
Битовая глубина : 8 бит
Тип развёртки : Прогрессивная
Бит/(Пиксели*Кадры) : 0.101
Размер потока : 569 Мбайт (83%)
Заголовок : kosmoaelita
Библиотека кодирования : x264 core 65
Настройки программы : cabac=1 / ref=3 / deblock=1:0:0 / analyse=0x3:0x133 / me=umh / subme=9 / psy_rd=1.0:1.0 / mixed_ref=1 / me_range=16 / chroma_me=1 / trellis=1 / 8x8dct=1 / cqm=0 / deadzone=21,11 / chroma_qp_offset=-4 / threads=6 / nr=150 / decimate=1 / mbaff=0 / bframes=6 / b_pyramid=1 / b_adapt=1 / b_bias=0 / direct=3 / wpredb=1 / keyint=300 / keyint_min=30 / scenecut=40(pre) / rc=2pass / bitrate=1300 / ratetol=1.0 / qcomp=0.60 / qpmin=10 / qpmax=51 / qpstep=4 / cplxblur=20.0 / qblur=0.5 / ip_ratio=1.40 / pb_ratio=1.30 / aq=1:1.00
Default : Да
Forced : Нет
Основные цвета : BT.601 NTSC
Характеристики трансфера : BT.709
Коэффициенты матрицы : BT.601
colour_range : Limited
Аудио
Идентификатор : 2
Формат : AC-3
Формат/Информация : Audio Coding 3
Расширение режима : CM (complete main)
Параметр Endianness формата : Big
Идентификатор кодека : A_AC3
Продолжительность : 1 ч. 17 м.
Вид битрейта : Постоянный
Битрейт : 192 Кбит/сек
Каналы : 2 канала
Расположение каналов : Front: L R
Частота : 48,0 КГц
Битовая глубина : 16 бит
Метод сжатия : С потерями
Размер потока : 106 Мбайт (15%)
Язык : English
Default : Да
Forced : Нет
Текст #1
Идентификатор : 3
Формат : VobSub
Режим смешивания : zlib
Идентификатор кодека : S_VOBSUB
Идентификатор кодека/Информация : The same subtitle format used on DVDs
Заголовок : Русский (kosmoaelita-Severnyj) VobSub - перевод на слух с англ.
Язык : Russian
Default : Да
Forced : Нет
Текст #2
Идентификатор : 4
Формат : VobSub
Режим смешивания : zlib
Идентификатор кодека : S_VOBSUB
Идентификатор кодека/Информация : The same subtitle format used on DVDs
Заголовок : Русский (kosmoaelita-Severnyj) VobSub - перевод на слух с англ.
Язык : Russian
Default : Нет
Forced : Нет
Текст #3
Идентификатор : 5
Формат : UTF-8
Идентификатор кодека : S_TEXT/UTF8
Идентификатор кодека/Информация : UTF-8 Plain Text
Заголовок : Русский (kosmoaelita-Severnyj) srt - перевод на слух с англ.
Язык : Russian
Default : Нет
Forced : Нет
Текст #4
Идентификатор : 6
Формат : UTF-8
Идентификатор кодека : S_TEXT/UTF8
Идентификатор кодека/Информация : UTF-8 Plain Text
Язык : French
Default : Нет
Forced : Нет
Меню
00:00:00.000 : en:Chapter 1
00:05:33.149 : en:Chapter 2
00:13:38.350 : en:Chapter 3
00:17:56.108 : en:Chapter 4
00:26:13.071 : en:Chapter 5
00:32:27.603 : en:Chapter 6
00:39:18.556 : en:Chapter 7
00:45:29.259 : en:Chapter 8
00:51:16.072 : en:Chapter 9
00:58:35.486 : en:Chapter 10
01:04:01.938 : en:Chapter 11
01:10:25.854 : en:Chapter 12

Пример субтитров

1
00:00:05,983 --> 00:00:14,186
Американ Интернешнл Пикчерс
2
00:00:15,983 --> 00:00:20,686
Голден Стейт продакшнз
представляет фильм
3
00:00:21,060 --> 00:00:26,133
"Женщина-монстр" или
"Существо из прошлого"
(The She-Creature, 1956г)
4
00:00:26,818 --> 00:00:33,886
В ролях: Честер Моррис,
Том Конуэй, Кэти Даунс и др.
5
00:00:46,818 --> 00:00:53,886
Релиз
www.kosmoaelita.com
6
00:01:32,399 --> 00:01:37,462
Режиссёр - Эдвард Л. Кан
7
00:01:46,708 --> 00:01:53,567
Этой ночью я вызвал её из неизведанных
глубин времени. Она здесь.
--------------------------
802
01:16:42,050 --> 01:16:45,983
Он заставил её прийти сюда.
Нужно было оставить её в покое.
803
01:16:46,363 --> 01:16:49,779
Есть множество тёмных уголков,
в которые нам соваться не следует.
804
01:17:01,246 --> 01:17:03,246
Она никогда не вернётся, правда?
805
01:17:04,816 --> 01:17:06,879
Да.
806
01:17:13,022 --> 01:17:17,360
Конец

Скриншоты








Скринлист



Последний раз редактировалось: admin (2015-10-14 01:16), всего редактировалось 4 раз(а)
[Профиль] [ЛС]

Трамвай-фильм

Пол: Мужской

Стаж: 3 года 1 месяц

Сообщений: 1110

Откуда: Россия

Создавать темы 13-Окт-2015 19:20 (спустя 7 часов)

[Цитировать]

О, "клон" существа уничтожения.
[Профиль] [ЛС]
Быстрый ответ

Имя:

            
Для отправки сообщений необходимо включить JavaScript
Показать сообщения:    
Ответить на тему

Текущее время: 25-Сен 17:02

Часовой пояс: UTC + 3:30



Вы не можете начинать темы
Вы можете отвечать на сообщения
Вы не можете редактировать свои сообщения
Вы не можете удалять свои сообщения
Вы не можете голосовать в опросах
Вы не можете прикреплять файлы к сообщениям
Вы не можете скачивать файлы