Лос-Анджелес 2017 / Los Angeles 2017 (The Name of the Game s3e16) (Steven Spielberg / Стивен Спилберг) [1971, США, Фантастика, приключения, VHSRip] ЛО (den904), СТ (kosmoaelita-Severnyj)

Reply to topic
 
Author Message

admin ®

Gender: Male

Longevity: 8 years 1 month

Posts: 4795

Post 03-Oct-2015 01:10

[Quote]

Лос-Анджелес 2017 / Los Angeles 2017 (The Name of the Game s3e16)
Страна: США, Universal TV
Жанр: Фантастика, приключения
Год выпуска: 1971
Продолжительность: 01:15:37
Перевод: ЛО den904 по субтитрам от kosmoaelita-Severnyj
Режиссер: Steven Spielberg / Стивен Спилберг
В ролях:
Gene Barry ... Glenn Howard
Barry Sullivan ... Dane Bigelow
Edmond O'Brien ... Bergman
Severn Darden ... Cameron
Paul Stewart ... Dr. Rubias
Louise Latham ... Helen
Sharon Farrell ... Sandrelle
Regis Cordic ... Chairman (as Regis J. Cordic)
Michael C. Gwynne ... Dr. Parker
Gloria Manon ... Dr. Arnold
Jason Wingreen ... Hammond
Stuart Nisbet ... Dr. Simmons
Geoffrey Lewis ... Bates
Phil Montgomery ... Keeger
Alicia Bond ... Dr. Barton
Описание: Гленн Ховард направляется на совещание на высшем уровне, посвященное защите окружающей среды. Внезапно он теряет сознание и приходит в себя где-то в будущем в 2017 году, когда остатки человеческого общества прячутся под землей вследствие невозможности дышать загаженным воздухом. Сможет ли он вернуться в свой 1971 год?
Релиз

Качество: VHSRip
Формат: MKV
Видео: XviD, 1134 кбит/с, 416x304, 29.97 к/с
Аудио 1: Русский ЛО (den904) (AC3, 2 ch, 192 Кбит/с)
Аудио 2: Английский (МР3, 2 ch, 128 Кбит/с)
Субтитры : Русские (Severnyj)
Работа над релизом:
Релиз kosmoaelita.
Видеоряд найден на CG.
Перевод на слух с англ. по заказу kosmoaelita - Severnyj
Русская озвучка по заказу kosmoaelita - den904
Спонсоры русской озвучки - snorrinort, Starlay, PonchoUsatiy, archestrategos, Ввикторрр, pompilius, Arias.



Пример русских субтитров

Дополнительно

Budget:$350 000 (estimated)

Знаете ли вы, что...

MediaInfo

Общее
Уникальный идентификатор : 225229076064224636191397299846019458147 (0xA9718ACD37C5CC518F6EC36DB86AA463)
Полное имя : F:\The Name of the Game s3e16 LA 2017 1971.XviD.VHSRip.Rus.kosmoaelita.mkv
Формат : Matroska
Версия формата : Version 4
Размер файла : 799 Мбайт
Продолжительность : 1 ч. 15 м.
Режим общего битрейта : Переменный
Общий поток : 1477 Кбит/сек
Название фильма : The Name of the Game s3e16 / LA 2017 / 1971 / Релиз kosmoaelita.com
Дата кодирования : UTC 2020-03-12 17:21:30
Программа кодирования : mkvmerge v6.6.0 ('The Edge Of The In Between') built on Dec 1 2013 17:55:00
Библиотека кодирования : libebml v1.3.0 + libmatroska v1.4.1
Attachments : POSTER.jpg
Видео
Идентификатор : 1
Формат : MPEG-4 Visual
Профиль формата : Simple@L0
Параметр BVOP формата : Нет
Параметр QPel формата : Нет
Параметр GMC формата : Без точки перехода
Параметр матрицы формата : Default (H.263)
Идентификатор кодека : V_MS/VFW/FOURCC / XVID
Идентификатор кодека/Подсказка : XviD
Продолжительность : 1 ч. 15 м.
Битрейт : 1134 Кбит/сек
Ширина : 416 пикселей
Высота : 304 пикселя
Соотношение сторон : 4:3
Режим частоты кадров : Постоянный
Частота кадров : 29,970 (29970/1000) кадров/сек
Цветовое пространство : YUV
Субдискретизация насыщенности : 4:2:0
Битовая глубина : 8 бит
Тип развёртки : Прогрессивная
Метод сжатия : С потерями
Бит/(Пиксели*Кадры) : 0.299
Размер потока : 613 Мбайт (77%)
Заголовок : http://www.kosmoaelita.com/viewtopic.php?t=1925
Библиотека кодирования : XviD 1.0.3 (UTC 2004-12-20)
Default : Да
Forced : Нет
Аудио #1
Идентификатор : 2
Формат : AC-3
Формат/Информация : Audio Coding 3
Коммерческое название : Dolby Digital
Идентификатор кодека : A_AC3
Продолжительность : 1 ч. 15 м.
Вид битрейта : Постоянный
Битрейт : 192 Кбит/сек
Каналы : 2 канала
ChannelLayout : L R
Частота : 48,0 КГц
Частота кадров : 31,250 кадров/сек (1536 SPF)
Метод сжатия : С потерями
Размер потока : 104 Мбайт (13%)
Заголовок : Русский ЛО (den904) - для kosmoaelita.com
Язык : Russian
ServiceKind/String : Complete Main
Default : Да
Forced : Нет
Аудио #2
Идентификатор : 3
Формат : MPEG Audio
Версия формата : Version 1
Профиль формата : Layer 3
Настройки формата : Dual mono
Идентификатор кодека : A_MPEG/L3
Идентификатор кодека/Подсказка : MP3
Продолжительность : 1 ч. 15 м.
Вид битрейта : Переменный
Битрейт : 121 Кбит/сек
Номинальный битрейт : 128 Кбит/сек
Каналы : 2 канала
Частота : 48,0 КГц
Частота кадров : 41,667 кадра/сек (1152 SPF)
Метод сжатия : С потерями
Размер потока : 65,6 Мбайт (8%)
Библиотека кодирования : LAME3.96r
Настройки программы : -m d -V 4 -q 3 -lowpass 17.5 --abr 128
Язык : English
Default : Нет
Forced : Нет
Текст #1
Идентификатор : 4
Формат : UTF-8
Идентификатор кодека : S_TEXT/UTF8
Идентификатор кодека/Информация : UTF-8 Plain Text
Заголовок : Русский (kosmoaelita-Severnyj) srt - перевод на слух с англ.
Язык : Russian
Default : Да
Forced : Нет
Текст #2
Идентификатор : 5
Формат : VobSub
Режим смешивания : zlib
Идентификатор кодека : S_VOBSUB
Идентификатор кодека/Информация : Picture based subtitle format used on DVDs
Заголовок : Русский (kosmoaelita-Severnyj) VobSub- перевод на слух с англ.
Язык : Russian
Default : Нет
Forced : Нет

Пример субтитров

1
00:00:01,498 --> 00:00:04,964
В ролях: Джин Барри, Барри
Салливан, Эдмонд О'Брайан
2
00:00:06,287 --> 00:00:08,020
Режиссёр - Стивен Спилберг
3
00:00:34,601 --> 00:00:37,930
Суть дела
4
00:00:40,617 --> 00:00:46,178
Нефтяная компания заявила, что прилагаются
все усилия по устранению утечки.
5
00:00:46,203 --> 00:00:51,593
Однако представители компании не сообщили,
сколько времени займёт ремонт скважины.
6
00:00:51,626 --> 00:00:57,538
Погода ожидается солнечная, средняя температура
- 20-25 градусов. Однако существует
7
00:00:57,563 --> 00:01:03,193
вероятность возникновения смога, уровень
загрязнения воздуха достиг новых высот.
-----------------------------
891
01:14:39,976 --> 01:14:47,332
Но между нами скажу, что конференцию
по такому жизненно важному вопросу,
892
01:14:47,356 --> 01:14:54,448
...как разрушение окружающей среды,
считаю бесполезной, если не будут
приняты конкретные меры.
893
01:14:54,821 --> 01:14:56,611
Необходимо расставить приоритеты.
894
01:14:56,822 --> 01:15:01,544
Иначе это может стать началом конца
той Земли, на которой мы сейчас живём...

Скриншоты














Скринлист

[Profile] [PM]

kosmoaelita

Gender: Male

Longevity: 8 years 1 month

Posts: 1687

Post 12-Mar-2020 20:27 (after 4 years 5 months)

[Quote]

Добавлена русская озвучка от den904
Спасибо всем участникам проекта!
[Profile] [PM]
Display posts:    
Reply to topic

Current time is: 30-Oct 16:11

All times are UTC + 3



You cannot post new topics in this forum
You cannot reply to topics in this forum
You cannot edit your posts in this forum
You cannot delete your posts in this forum
You cannot vote in polls in this forum
You cannot attach files in this forum
You cannot download files in this forum