Горас / Yôsei Gorasu / Yosei Gorasu / Gorath / Astronaut 1980 (Иширо Хонда / Ishiro Honda) [1962 г., фантастика, триллер, WEBRip-720p] ЛО (slavnus), СТ (Il Palazzo-sama)

Reply to topic
 
Author Message

Guest ®

Gender: Unknown

Post 22-Sep-2012 08:55

[Quote]

Горас / Yôsei Gorasu / Gorath / Astronaut 1980
Год выпуска: 1962
Страна: Япония, Toho Company
Жанр: фантастика, триллер
Продолжительность: 01:28:04
Перевод: Любительский (одноголосый) slavnus по субтитрам от Il Palazzo-sama
Режиссер: Иширо Хонда / Ishiro Honda
В ролях:
Ryô Ikebe ... Dr. Tazawa - Astrophysicist
Yumi Shirakawa ... Tomoko Sonoda
Akira Kubo ... Tatsuma Kanai - Cadet Astronaut
Kumi Mizuno ... Takiko Nomura
Hiroshi Tachikawa ... Wakabayashi - Pilot of Ôtori
Akihiko Hirata ... Endô - Captain of Ôtori
Kenji Sahara ... Saiki - Vice Captain of Ôtori
Jun Tazaki ... Raizô Sonoda - Tomoko's Father
Ken Uehara ... Dr. Kôno - Astrophysicist
Takashi Shimura ... Kensuke Sonoda - Paleontologist
Seizaburô Kawazu ... Tada - Minister of Finance
Kô Mishima ... Sanada - Engineer
Sachio Sakai ... Physician
Takamaru Sasaki ... Prime Minister Seki
Kô Nishimura ... Murata - Secretary of Space
Описание: К Земле движется Горас — огромный метеор. Если он столкнётся с нашей планетой, человечество погибнет. Люди со всего мира ищут способ противостоять этому. Положение осложняется тем, что база в Антарктике, которая была единственной надеждой на спасение, была атакована очнувшимся от векового сна чудовищем Магумой….
Качество: WEBRip-720p
Формат: MKV
Видео: x264, 4002 Кбит/сек, 1280x528 23.976 fps
Аудио 1: Русский ЛО Стерео (AC3, 2 ch, 224 Кбит/с)
Аудио 2: Русский ЛО 4.0 (AC3, 4 ch,448 Кбит/с)
Аудио 3: Японский 4.0 (AC3, 4 ch,384 Кбит/с)
Аудио 4: Японский Стерео (AC3, 2 ch, 224 Кбит/с)
Аудио 5: Японский Comment (AC3, 1 ch, 96 Кбит/с)
Субтитры : Русские (Il Palazzo-sama), английские
Работа над релизом:
Видеоряд найден на Карагарге
4-канальная русская дорожка получена путем наложения чистого голоса на центральный канал японской 4.0 дорожки - kosmoaelita
Озвучка: slavnus
Перевод с англ. субтитров: Il Palazzo-sama, ensky



Трейлер

Пример озвучки от slavnus

Дополнительно

слоган «See! the world doomed by an invading wild sun 6000 times bigger than earth!»
Also Known As (AKA)
Apeili apo to kentro tou sympantos Greece (imdb display title)
Astronaut 1980 (undefined)
Gorath USA
Gorath, the Mysterious Star (undefined)
Le choc des planètes France
Suspicous Star Gorath (undefined)
Ufos zerstören die Erde West Germany
Yôsei Gorath Japan (alternative spelling)

Рецензия

MediaInfo

Общее
Уникальный идентификатор : 230498748190859213435796118164606797879 (0xAD6871B2670500F5A81462FEC5ABC837)
Полное имя : N:\BD-DISC\Gorath 1962.x264.WEBRip.720p.Rus.kosmoaelita.mkv
Формат : Matroska
Версия формата : Version 4 / Version 2
Размер файла : 3,38 Гбайт
Продолжительность : 1 ч. 28 м.
Режим общего битрейта : Переменный
Общий поток : 5487 Кбит/сек
Название фильма : Горас / Yôsei Gorasu / Gorath / Astronaut 1980 / 1962 / kosmoaelita
Дата кодирования : UTC 2018-03-19 01:12:39
Программа кодирования : mkvmerge v6.6.0 ('The Edge Of The In Between') built on Dec 1 2013 17:55:00
Библиотека кодирования : libebml v1.3.0 + libmatroska v1.4.1
Attachments : poster.jpg
Видео
Идентификатор : 1
Формат : AVC
Формат/Информация : Advanced Video Codec
Профиль формата : High@L3.1
Параметр CABAC формата : Да
Параметр ReFrames формата : 5 кадров
Идентификатор кодека : V_MPEG4/ISO/AVC
Продолжительность : 1 ч. 28 м.
Вид битрейта : Переменный
Битрейт : 4002 Кбит/сек
Максимальный битрейт : 4500 Кбит/сек
Ширина : 1280 пикселей
Высота : 528 пикселей
Соотношение сторон : 2,40:1
Соотношение сторон в оригинале : 2,40:1
Режим частоты кадров : Постоянный
Частота кадров : 23,976 (24000/1001) кадра/сек
Цветовое пространство : YUV
Субдискретизация насыщенности : 4:2:0
Битовая глубина : 8 бит
Тип развёртки : Прогрессивная
Бит/(Пиксели*Кадры) : 0.247
Размер потока : 2,46 Гбайт (73%)
Заголовок : kosmoaelita
Библиотека кодирования : x264 core 148 r2623 d5b2374
Настройки программы : cabac=1 / ref=5 / deblock=1:-1:-1 / analyse=0x3:0x133 / me=umh / subme=9 / psy=1 / psy_rd=1.00:0.15 / mixed_ref=1 / me_range=24 / chroma_me=1 / trellis=2 / 8x8dct=1 / cqm=0 / deadzone=21,11 / fast_pskip=1 / chroma_qp_offset=-3 / threads=16 / lookahead_threads=2 / sliced_threads=0 / nr=150 / decimate=1 / interlaced=0 / bluray_compat=0 / constrained_intra=0 / bframes=8 / b_pyramid=2 / b_adapt=2 / b_bias=0 / direct=3 / weightb=1 / open_gop=0 / weightp=2 / keyint=120 / keyint_min=61 / scenecut=0 / intra_refresh=0 / rc_lookahead=120 / rc=crf / mbtree=1 / crf=18.0 / qcomp=0.60 / qpmin=0 / qpmax=69 / qpstep=4 / vbv_maxrate=4500 / vbv_bufsize=17500 / crf_max=0.0 / nal_hrd=vbr / filler=0 / ip_ratio=1.40 / aq=3:1.00
Default : Да
Forced : Нет
Цветовой диапазон : Limited
Основные цвета : BT.709
Характеристики трансфера : BT.709
Коэффициенты матрицы : BT.709
Statistics Tags Issue : mkvmerge v19.0.0 ('Brave Captain') 64-bit 2018-02-12 04:21:16 / mkvmerge v6.6.0 ('The Edge Of The In Between') built on Dec 1 2013 17:55:00 2018-03-19 01:12:39
FromStats_BitRate : 4104302
FromStats_Duration : 01:28:04.279000000
FromStats_FrameCount : 126696
FromStats_StreamSize : 2711034793
Аудио #1
Идентификатор : 2
Формат : AC-3
Формат/Информация : Audio Coding 3
Расширение режима : CM (complete main)
Параметр Endianness формата : Big
Идентификатор кодека : A_AC3
Продолжительность : 1 ч. 28 м.
Вид битрейта : Постоянный
Битрейт : 224 Кбит/сек
Каналы : 2 канала
Расположение каналов : Front: L R
Частота : 48,0 КГц
Частота кадров : 31,250 кадров/сек (1536 spf)
Метод сжатия : С потерями
Размер потока : 141 Мбайт (4%)
Заголовок : Русский ЛО (slavnus) AC3 2.0 224 - по субт. от Il Palazzo-sama
Язык : Russian
Default : Да
Forced : Нет
Аудио #2
Идентификатор : 3
Формат : AC-3
Формат/Информация : Audio Coding 3
Расширение режима : CM (complete main)
Параметр Endianness формата : Big
Идентификатор кодека : A_AC3
Продолжительность : 1 ч. 28 м.
Вид битрейта : Постоянный
Битрейт : 448 Кбит/сек
Каналы : 4 канала
Расположение каналов : Front: L C R, Back: C
Частота : 48,0 КГц
Частота кадров : 31,250 кадров/сек (1536 spf)
Метод сжатия : С потерями
Размер потока : 282 Мбайт (8%)
Заголовок : Русский ЛО (slavnus) AC3 4.0 448 - по субт. от Il Palazzo-sama
Язык : Russian
Default : Нет
Forced : Нет
Аудио #3
Идентификатор : 4
Формат : E-AC-3
Формат/Информация : Audio Coding 3
Параметр Endianness формата : Big
Идентификатор кодека : A_EAC3
Продолжительность : 1 ч. 28 м.
Вид битрейта : Постоянный
Битрейт : 224 Кбит/сек
Каналы : 2 канала
Расположение каналов : Front: L R
Частота : 48,0 КГц
Частота кадров : 187,500 кадров/сек (256 spf)
Метод сжатия : С потерями
Размер потока : 141 Мбайт (4%)
Заголовок : 2.0
Язык : Japanese
Default : Нет
Forced : Нет
Statistics Tags Issue : mkvmerge v19.0.0 ('Brave Captain') 64-bit 2018-02-12 04:21:16 / mkvmerge v6.6.0 ('The Edge Of The In Between') built on Dec 1 2013 17:55:00 2018-03-19 01:12:39
FromStats_BitRate : 224000
FromStats_Duration : 01:28:04.224000000
FromStats_FrameCount : 165132
FromStats_StreamSize : 147958272
Аудио #4
Идентификатор : 5
Формат : AC-3
Формат/Информация : Audio Coding 3
Расширение режима : CM (complete main)
Параметр Endianness формата : Big
Идентификатор кодека : A_AC3
Продолжительность : 1 ч. 28 м.
Вид битрейта : Постоянный
Битрейт : 384 Кбит/сек
Каналы : 4 канала
Расположение каналов : Front: L C R, Back: C
Частота : 48,0 КГц
Частота кадров : 31,250 кадров/сек (1536 spf)
Метод сжатия : С потерями
Размер потока : 242 Мбайт (7%)
Заголовок : 4.0
Язык : Japanese
Default : Нет
Forced : Нет
Аудио #5
Идентификатор : 6
Формат : AC-3
Формат/Информация : Audio Coding 3
Расширение режима : CM (complete main)
Параметр Endianness формата : Big
Идентификатор кодека : A_AC3
Продолжительность : 1 ч. 28 м.
Вид битрейта : Постоянный
Битрейт : 96,0 Кбит/сек
Каналы : 1 канал
Расположение каналов : Front: C
Частота : 48,0 КГц
Частота кадров : 31,250 кадров/сек (1536 spf)
Метод сжатия : С потерями
Размер потока : 60,5 Мбайт (2%)
Заголовок : Comment japan
Язык : Japanese
Default : Нет
Forced : Нет
Текст #1
Идентификатор : 7
Формат : UTF-8
Идентификатор кодека : S_TEXT/UTF8
Идентификатор кодека/Информация : UTF-8 Plain Text
Заголовок : Русский (Il Palazzo-sama) srt - перевод с англ.
Язык : Russian
Default : Да
Forced : Нет
Текст #2
Идентификатор : 8
Формат : VobSub
Режим смешивания : zlib
Идентификатор кодека : S_VOBSUB
Идентификатор кодека/Информация : Picture based subtitle format used on DVDs
Заголовок : Русский (Il Palazzo-sama) VobSub - перевод с англ.
Язык : Russian
Default : Нет
Forced : Нет
Текст #3
Идентификатор : 9
Формат : VobSub
Режим смешивания : zlib
Идентификатор кодека : S_VOBSUB
Идентификатор кодека/Информация : Picture based subtitle format used on DVDs
Язык : English
Default : Нет
Forced : Нет
Текст #4
Идентификатор : 10
Формат : UTF-8
Идентификатор кодека : S_TEXT/UTF8
Идентификатор кодека/Информация : UTF-8 Plain Text
Язык : English
Default : Нет
Forced : Нет

Скриншоты
























Скринлист

Файл дополнительно залит на ОБЛАКО
 

admin

Gender: Male

Longevity: 7 years

Posts: 4725

Location: Україна

Post 27-Sep-2012 21:22 (after 5 days)

[Quote]

Торрент перезалит
[Profile] [PM]

admin

Gender: Male

Longevity: 7 years

Posts: 4725

Location: Україна

Post 25-Dec-2012 04:37 (after 2 months 27 days)

[Quote]

Перезалито в лучшем качестве.Пересведены дорожки
[Profile] [PM]

kosmoaelita2

Gender: Male

Longevity: 6 years 11 months

Posts: 743

Post 19-Mar-2018 04:22 (after 5 years 2 months)

[Quote]

Замена на WEBRip-720p
[Profile] [PM]

Трамвай-фильм

Gender: Male

Longevity: 5 years 1 month

Posts: 1539

Location: Россия

Post 19-Mar-2018 18:18 (after 13 hours)

[Quote]

Фильм огонь! Морж-монстр, станция из квадрологии Стармена и конечно супер-японский истребитель. Робот с ушами-ситечками тоже вставляет.
[Profile] [PM]
Display posts:    
Reply to topic

Current time is: 21-Sep 02:29

All times are UTC + 3



You cannot post new topics in this forum
You cannot reply to topics in this forum
You cannot edit your posts in this forum
You cannot delete your posts in this forum
You cannot vote in polls in this forum
You cannot attach files in this forum
You cannot download files in this forum