Не из этого мира / Not of This World / Space Killers (Jon Hess (as Jon Daniel Hess) / Джон Хесс) [1991, США, ужасы, фантастика, VHSRip] (ЛД : den904 + DeadSno) (СТ : Severnyj)

Reply to topic
 
Author Message

admin ®

Gender: Male

Longevity: 8 years 2 months

Posts: 4796

Post 16-Aug-2015 23:26

[Quote]

Не из этого мира / Not of This World / Space Killers
Страна: США, Barry & Enright Productions, Paramount Television
Жанр: ужасы, фантастика
Год выпуска: 1991
Продолжительность: 01:29:38
Перевод: Любительский (двухголосый) den904 + DeadSno по субтитрам от Severnyj
Режиссер: Jon Hess (as Jon Daniel Hess) / Джон Хесс
В ролях:
Lisa Hartman ... Linda Fletcher
A Martinez ... Sheriff Tom Conway
Pat Hingle ... Doc Avery
Luke Edwards ... Billy Fletcher
Michael Greene ... Walt Tressie
Tracey Walter ... Henry
Cary-Hiroyuki Tagawa ... Shikido
Tim Choate
Ivory Ocean
Ian Patrick Williams
Xander Berkeley ... Bruce MacNamara
Richard Grove ... A.J.
Stephen Prutting ... Pastor Williams
Richard Epcar ... Workman 1
Greg Natale ... Workman 2
Описание: Из далекого космоса прилетело инопланетное существо и начало питаться земной электроэнергией, получая возможность расти и убивать. Оно выросло до огромных размеров. Кажется, что ничего уже не сможет остановить космического убийцу, но нашлись смельчаки, работающие на электростанции, которые жертвуя собой, сумели найти способ остановить и уничтожить злобного пришельца…
Качество: VHSRip
Формат: MKV
Видео: xviD, 1496 кбит/с, 704x528, 29.97 к/с
Аудио 1: Русский ЛД (den904&DeadSno) (AC3, 2 ch, 192 Кбит/с)
Аудио 2: Английский (AC3, 2 ch, 192 Кбит/с)
Субтитры : Русские (Severnyj)
Работа над релизом:
Видеоряд найден на CG
Перевод и озвучка при поддержке innominate
Тайминг - kosmoaelita
Синх. русской дорожки - punk and destroy



Пример русской озвучки

Дополнительно

слоган «It feeds on electricity. It's killing the town. One woman's rage will give it the shock of its life»
Also Known As (AKA)
Brazil Semente do Terror
Germany Space Killers
France Shock Invader
Hungary Space Killers
Italy Non di questo mondo
================================================
Для Украины: рип и оригинальный ДВД дополнительно залиты в файлохранилище
Для удаления,добавления и извлечения дорожек в mkv используйте бесплатную портативную mkvmerge GUI 7.1.0
Для присоединения потом дорожек к avi воспользуйтесь VirtualDubMod

Знаете ли вы, что...

Отзывы

Рецензия

MediaInfo

Общее
Уникальный идентификатор : 197517027395196653819713287719528055414 (0x9498655070CBEA978A4CFC00382A4276)
Полное имя : N:\Not Of This World 1991.XviD.VHSRip.Rus.mkv
Формат : Matroska
Версия формата : Version 4 / Version 2
Размер файла : 1,20 Гбайт
Продолжительность : 1 ч. 29 м.
Общий поток : 1918 Кбит/сек
Название фильма : Not Of This World 1991.XviD.VHSRip
Дата кодирования : UTC 2015-08-16 19:54:54
Программа кодирования : mkvmerge v6.6.0 ('The Edge Of The In Between') built on Dec 1 2013 17:55:00
Библиотека кодирования : libebml v1.3.0 + libmatroska v1.4.1
Видео
Идентификатор : 1
Формат : MPEG-4 Visual
Профиль формата : Advanced Simple@L5
Параметр BVOP формата : 2
Параметр QPel формата : Нет
Параметр GMC формата : Без точки перехода
Параметр матрицы формата : Default (H.263)
Идентификатор кодека : V_MS/VFW/FOURCC / XVID
Идентификатор кодека/Подсказка : XviD
Продолжительность : 1 ч. 29 м.
Битрейт : 1496 Кбит/сек
Ширина : 704 пикселя
Высота : 528 пикселей
Соотношение сторон : 4:3
Режим частоты кадров : Постоянный
Частота кадров : 29,970 кадров/сек
Цветовое пространство : YUV
Субдискретизация насыщенности : 4:2:0
Битовая глубина : 8 бит
Тип развёртки : Прогрессивная
Метод сжатия : С потерями
Бит/(Пиксели*Кадры) : 0.134
Размер потока : 959 Мбайт (78%)
Библиотека кодирования : XviD 1.2.1 (UTC 2008-12-04)
Default : Да
Forced : Нет
Аудио #1
Идентификатор : 2
Формат : AC-3
Формат/Информация : Audio Coding 3
Расширение режима : CM (complete main)
Параметр Endianness формата : Big
Идентификатор кодека : A_AC3
Продолжительность : 1 ч. 29 м.
Вид битрейта : Постоянный
Битрейт : 192 Кбит/сек
Каналы : 2 канала
Расположение каналов : Front: L R
Частота : 48,0 КГц
Битовая глубина : 16 бит
Метод сжатия : С потерями
Размер потока : 123 Мбайт (10%)
Заголовок : Русский ЛД (den904&DeadSno) по субтитрам от Severnyj
Язык : Russian
Default : Да
Forced : Нет
Аудио #2
Идентификатор : 3
Формат : AC-3
Формат/Информация : Audio Coding 3
Расширение режима : CM (complete main)
Параметр Endianness формата : Big
Идентификатор кодека : A_AC3
Продолжительность : 1 ч. 29 м.
Вид битрейта : Постоянный
Битрейт : 192 Кбит/сек
Каналы : 2 канала
Расположение каналов : Front: L R
Частота : 48,0 КГц
Битовая глубина : 16 бит
Метод сжатия : С потерями
Размер потока : 123 Мбайт (10%)
Язык : English
Default : Нет
Forced : Нет
Текст #1
Идентификатор : 4
Формат : VobSub
Режим смешивания : zlib
Идентификатор кодека : S_VOBSUB
Идентификатор кодека/Информация : The same subtitle format used on DVDs
Заголовок : Русский (Severnyj) VobSub - на слух с английского
Язык : Russian
Default : Да
Forced : Нет
Текст #2
Идентификатор : 5
Формат : VobSub
Режим смешивания : zlib
Идентификатор кодека : S_VOBSUB
Идентификатор кодека/Информация : The same subtitle format used on DVDs
Заголовок : Русский (Severnyj) VobSub - на слух с английского
Язык : Russian
Default : Нет
Forced : Нет
Текст #3
Идентификатор : 6
Формат : UTF-8
Идентификатор кодека : S_TEXT/UTF8
Идентификатор кодека/Информация : UTF-8 Plain Text
Заголовок : Русский (Severnyj) srt - на слух с английского
Язык : Russian
Default : Нет
Forced : Нет

Пример субтитров

1
00:00:45,100 --> 00:00:49,260
"Не из этого мира"
(Not of This World aka
Space Killers , 1991г)
2
00:03:17,630 --> 00:03:19,240
Дедушка!
3
00:03:22,260 --> 00:03:24,180
Эй, дедушка!
4
00:03:27,550 --> 00:03:30,360
Дедушка, дедушка, смотри!
5
00:03:36,500 --> 00:03:40,400
Поэтому я хочу поблагодарить вас.
Жители Либерти,
6
00:03:40,420 --> 00:03:43,800
спасибо, что приняли
Шокиро в ваше сообщество.
-----------------
937
01:27:20,700 --> 01:27:22,240
Мой отец погиб на войне.
938
01:27:23,660 --> 01:27:27,130
Вы спасли его сына. Моя
семья благодарна вам.
939
01:27:27,720 --> 01:27:29,640
Похоже, мы все проделали большой путь.
940
01:27:29,880 --> 01:27:35,510
Да, наверное, ребята... Но сейчас нас
ждёт дорога домой. Билли, старина, пошли.

Скриншоты












Скринлист

cd Рип дополнительно залит на ОБЛАКО cd2
[Profile] [PM]
Display posts:    
Reply to topic

Current time is: 02-Dec 22:25

All times are UTC + 3



You cannot post new topics in this forum
You cannot reply to topics in this forum
You cannot edit your posts in this forum
You cannot delete your posts in this forum
You cannot vote in polls in this forum
You cannot attach files in this forum
You cannot download files in this forum