Пустошь. Закат человечества / Пустошь Закат человечества / Wasteland / Wasteland - Am Ende der Menschheit (Kantz / Кантц) [2011, США, фантастика, боевик, приключения, BDRip-1080p] АО (В.Котов), ЛО (Хихидок)

Reply to topic
 
Author Message

admin ®

Gender: Male

Longevity: 6 years 10 months

Posts: 4725

Location: Україна

Post 12-Aug-2015 23:49

[Quote]

Пустошь. Закат человечества / Wasteland / Wasteland - Am Ende der Menschheit
Страна: США, Modus Operandi Pictures
Жанр: фантастика, боевик, приключения
Год выпуска: 2011
Продолжительность: 01:20:11
Перевод: Авторский (одноголосый) В.Котов
Перевод 2: Любительский (одноголосый) Хихидок
Режиссер: Kantz / Кантц
В ролях:
Garret Sato ... Keo Tanaka (as Garret T. Sato)
Derrel Maury ... Caine
Janelle Velasquez ... Rachel Torro
Jordan Lawson ... Bygones / Kleg
Ira Katz ... Harrod
Lucky Sagiao ... Bloat
Jagger Chase ... Jacob Tanaka
Salar Ghajar ... Peek
Kaleti Williams ... Bolo
Zero Kazama ... Adult Jacob / Mutant
Sherry Shaoling ... Leigh
Maisie Pacia ... Lea
Shandon West ... Leah (as Megan O'Hara)
Megan Le ... Li (as Megan Nguyen)
Theresa June-Tao ... Lee
Описание: Мир отравлен, человечество вымирает. Члены религиозной секты убивают жену и забирают сына главного героя, в которого всадили три пули и посчитали мёртвым. Однако он выживает и много лет ищет своих обидчиков, пытаясь найти сына.
Качество: BDRip-1080p
Формат: MKV
Видео: x264, 8386 кбит/с, 1920x1080, 23,976 к/с
Аудио 1: Русский АО (Котов) (AC3, 6 ch, 384 Кбит/с)
Аудио 5: Русский ЛО (Хихидок)(AC3, 2 ch, 192 Кбит/с)
Аудио 3: Немецкий (DTS, 6 ch, 768 Кбит/с)
Работа над релизом:

Видеоряд найден на rarbg2018.org
Синхронизация русских дорожек - kosmoaelita
АО Котов - спасибо Вестернс.ру



Трейлер

Пример русского перевода от Котова

Дополнительно

слоган «How Far Will You Go For Revenge?»
Also Known As (AKA)
Germany (DVD title) Wasteland - Am Ende der Menschheit

Знаете ли вы, что...

Отзывы

Очень странное кино, шизофренически оно. ) Шизофреники играют, шизофреники снимают. Если честно, то смешно, смотреть американское кино..)
P.s. слово кино можно заменить другим словом..)
О самом фильме..там даже мораль присутствует..так что смотреть до конца..)Спасибо переводчику rive11 за перевод,этого чуднОго апокалипсиса..)

MediaInfo

Общее
Уникальный идентификатор : 255110536670472535390393981537327742801 (0xBFEC808E3A8519E09B7C598E37337F51)
Полное имя : N:\BD-DISC\Wasteland.2011.1080p.BluRay.x264.DTS-FGT\Wasteland 2011.x264.BDRip.1080p.2xRus.kosmoaelita.mkv
Формат : Matroska
Версия формата : Version 4
Размер файла : 5,56 Гбайт
Продолжительность : 1 ч. 20 м.
Общий поток : 9927 Кбит/сек
Название фильма : Wasteland 2011 / kosmoaelita
Дата кодирования : UTC 2019-05-11 19:25:17
Программа кодирования : mkvmerge v6.6.0 ('The Edge Of The In Between') built on Dec 1 2013 17:55:00
Библиотека кодирования : libebml v1.3.0 + libmatroska v1.4.1
Attachments : poster.jpg
Видео
Идентификатор : 1
Формат : AVC
Формат/Информация : Advanced Video Codec
Профиль формата : High@L4.1
Настройки формата : CABAC / 4 Ref Frames
Параметр CABAC формата : Да
Параметр RefFrames формата : 4 кадра
Идентификатор кодека : V_MPEG4/ISO/AVC
Продолжительность : 1 ч. 20 м.
Битрейт : 8386 Кбит/сек
Ширина : 1920 пикселей
Высота : 1080 пикселей
Соотношение сторон : 16:9
Режим частоты кадров : Постоянный
Частота кадров : 23,976 (24000/1001) кадра/сек
Цветовое пространство : YUV
Субдискретизация насыщенности : 4:2:0
Битовая глубина : 8 бит
Тип развёртки : Прогрессивная
Бит/(Пиксели*Кадры) : 0.169
Размер потока : 4,70 Гбайт (84%)
Заголовок : http://kosmoaelita.com/viewtopic.php?t=1905
Библиотека кодирования : x264 core 142 r2431 ac76440
Настройки программы : cabac=1 / ref=4 / deblock=1:-1:-1 / analyse=0x3:0x133 / me=umh / subme=7 / psy=1 / psy_rd=1.00:0.15 / mixed_ref=1 / me_range=16 / chroma_me=1 / trellis=1 / 8x8dct=1 / cqm=0 / deadzone=21,11 / fast_pskip=0 / chroma_qp_offset=-3 / threads=12 / lookahead_threads=2 / sliced_threads=0 / nr=0 / decimate=1 / interlaced=0 / bluray_compat=0 / constrained_intra=0 / bframes=3 / b_pyramid=2 / b_adapt=1 / b_bias=0 / direct=1 / weightb=1 / open_gop=0 / weightp=2 / keyint=250 / keyint_min=23 / scenecut=40 / intra_refresh=0 / rc_lookahead=40 / rc=crf / mbtree=1 / crf=20.0 / qcomp=0.60 / qpmin=0 / qpmax=69 / qpstep=4 / ip_ratio=1.40 / aq=1:1.00
Язык : English
Default : Да
Forced : Нет
Аудио #1
Идентификатор : 2
Формат : AC-3
Формат/Информация : Audio Coding 3
Коммерческое название : Dolby Digital
Идентификатор кодека : A_AC3
Продолжительность : 1 ч. 20 м.
Вид битрейта : Постоянный
Битрейт : 384 Кбит/сек
Каналы : 6 каналов
Channel layout : L R C LFE Ls Rs
Частота : 48,0 КГц
Частота кадров : 31,250 кадров/сек (1536 SPF)
Битовая глубина : 16 бит
Метод сжатия : С потерями
Размер потока : 220 Мбайт (4%)
Заголовок : Русский АО (В.Котов) AC3 5.1
Язык : Russian
ServiceKind/String : Complete Main
Default : Да
Forced : Нет
Аудио #2
Идентификатор : 3
Формат : AC-3
Формат/Информация : Audio Coding 3
Коммерческое название : Dolby Digital
Идентификатор кодека : A_AC3
Продолжительность : 1 ч. 20 м.
Вид битрейта : Постоянный
Битрейт : 192 Кбит/сек
Каналы : 2 канала
Channel layout : L R
Частота : 48,0 КГц
Частота кадров : 31,250 кадров/сек (1536 SPF)
Битовая глубина : 16 бит
Метод сжатия : С потерями
Размер потока : 110 Мбайт (2%)
Заголовок : Русский ЛО (Хихидок)
Язык : Russian
ServiceKind/String : Complete Main
Default : Нет
Forced : Нет
Аудио #3
Идентификатор : 4
Формат : DTS
Формат/Информация : Digital Theater Systems
Идентификатор кодека : A_DTS
Продолжительность : 1 ч. 20 м.
Вид битрейта : Постоянный
Битрейт : 768 Кбит/сек
Каналы : 6 каналов
Channel layout : C L R Ls Rs LFE
Частота : 48,0 КГц
Частота кадров : 93,750 кадра/сек (512 SPF)
Битовая глубина : 24 бит
Метод сжатия : С потерями
Размер потока : 440 Мбайт (8%)
Язык : English
Default : Нет
Forced : Нет
Меню
00:00:00.000 : en:00:00:00.000
00:06:23.967 : en:00:06:23.967
00:08:08.947 : en:00:08:08.947
00:12:29.999 : en:00:12:29.999
00:21:51.018 : en:00:21:51.018
00:28:23.952 : en:00:28:23.952
00:36:05.955 : en:00:36:05.955
00:43:00.953 : en:00:43:00.953
00:49:28.924 : en:00:49:28.924
00:58:17.911 : en:00:58:17.911
01:07:15.907 : en:01:07:15.907
01:16:23.913 : en:01:16:23.913

Скриншоты












Скринлист

cd Рип дополнительно залит на ОБЛАКО cd2
[Profile] [PM]

Трамвай-фильм

Gender: Male

Longevity: 4 years 11 months

Posts: 1466

Location: Россия

Post 13-Aug-2015 19:37 (after 19 hours)

[Quote]

судя по скринам гипер-малобюджетныЙ трэээээээээээш
[Profile] [PM]

pompilius

Gender: Male

Longevity: 1 year 8 months

Posts: 138

Post 26-May-2018 21:28 (after 2 years 9 months)

[Quote]

Ссылка на облако не рабочая
[Profile] [PM]

Трамвай-фильм

Gender: Male

Longevity: 4 years 11 months

Posts: 1466

Location: Россия

Post 27-May-2018 12:59 (after 15 hours)

[Quote]

скорее всего их и не было, это шаблонная вставка.
[Profile] [PM]

kosmoaelita2

Gender: Male

Longevity: 6 years 9 months

Posts: 743

Post 11-May-2019 22:40 (after 11 months 15 days)

[Quote]

Замена на BDRip-1080p
[Profile] [PM]
Display posts:    
Reply to topic

Current time is: 18-Jul 16:59

All times are UTC + 3



You cannot post new topics in this forum
You cannot reply to topics in this forum
You cannot edit your posts in this forum
You cannot delete your posts in this forum
You cannot vote in polls in this forum
You cannot attach files in this forum
You cannot download files in this forum