Земля беззакония / The Lawless Land (Jon Hess / Джон Хесс) [1988, США, Постапокалипсис, фантастика, боевик, приключения, VHSRip] АО (В.Рутилов)

Ответить на тему
 
Автор Сообщение

admin ®

Пол: Мужской

Стаж: 6 лет 2 месяца

Сообщений: 4731

Откуда: Україна

Создавать темы 18-Июл-2015 11:25

[Цитировать]

Земля беззакония / The Lawless Land
Страна: США
Жанр: Постапокалипсис, фантастика, боевик, приключения
Год выпуска: 1988
Продолжительность: 01:20:11
Перевод: Авторский (одноголосый) _ В.Рутилов
Режиссер: Jon Hess / Джон Хесс
В ролях: Jsu Garcia ... Falco (as Nick Corri)
Leon ... Road Kill
Xander Berkeley ... Ez Andy
Amanda Peterson ... Diana
Walter Kliche ... Chairman
Alejandro Heinrich ... Billy Boy
Ann-Marie Peterson ... Venus
Patricio Bunster ... Don Enrique
Luis Mora ... Priest (as Luis Mora del Solar)
Gloria Laso ... Checkpoint Battered Woman
Roberto Poblete ... Checkpoint Battered Man
Oscar Vigoroux ... Owner of the Pit
Teresa Ramos ... Gasoline Attendant
Marcos Madrid ... Gamina Boy
Joshua Sweek ... Falco as a Child
Описание: Действия фильма происходят в недалёком будущее, где молодым людям запрещается любить кого нибудь более низкого социального класса. Тем не менее, один из людей начинает борьбу с этим полицейским государством, а также ищет и сражается за свою любовь.
Качество: VHSRip
Формат: MKV
Видео: XviD, 1116 кбит/с, 512x400, 23.976 к/с
Аудио 1: Русский АО (В.Рутилов) (AC3, 2 ch, 192 Кбит/с)
Аудио 2: Английский (MP3, 2 ch, 64 Кбит/с)
Аудио 3: Немецкий (AC3, 2 ch, 192 Кбит/с)
Работа над релизом:
Рип найден на CG
За перевод спасибо monk108 и Вестернс.ру



Пример русского перевода

Дополнительно

слоган «A hellish chase in a world gone mad»
рейтинг MPAA лицам до 17 лет обязательно присутствие взрослого
Also Known As (AKA)
Brazil Nas Garras do Futuro
Spain Tierra sin ley
Finland Laiton maa
Greece (video title) I gi ton paranomon
Hungary Törvénytelen ország
West Germany Tödliche Flucht
================================================
Для Украины: рип и оригинальный ДВД дополнительно залиты в файлохранилище
Для удаления,добавления и извлечения дорожек в mkv используйте бесплатную портативную mkvmerge GUI 7.1.0
Для присоединения потом дорожек к avi воспользуйтесь VirtualDubMod

Отзывы

MediaInfo

Общее
Уникальный идентификатор : 176212072054326592791782434369733354207 (0x849135EABF101EEA82E5CF34E9FF62DF)
Полное имя : H:\1111\The Lawless Land\The Lawless Land 1988.XviD.VHSRip.Rus.mkv
Формат : Matroska
Версия формата : Version 4 / Version 2
Размер файла : 913 Мбайт
Продолжительность : 1 ч. 20 м.
Режим общего битрейта : Переменный
Общий поток : 1591 Кбит/сек
Название фильма : The Lawless Land 1988 / VHS | kosmoaelita
Дата кодирования : UTC 2015-07-18 07:30:50
Программа кодирования : mkvmerge v6.6.0 ('The Edge Of The In Between') built on Dec 1 2013 17:55:00
Библиотека кодирования : libebml v1.3.0 + libmatroska v1.4.1
Видео
Идентификатор : 1
Формат : MPEG-4 Visual
Профиль формата : Advanced Simple@L5
Параметр BVOP формата : 1
Параметр QPel формата : Нет
Параметр GMC формата : Без точки перехода
Параметр матрицы формата : Default (H.263)
Идентификатор кодека : V_MS/VFW/FOURCC / XVID
Идентификатор кодека/Подсказка : XviD
Продолжительность : 1 ч. 20 м.
Битрейт : 1116 Кбит/сек
Ширина : 512 пикселей
Высота : 400 пикселей
Соотношение сторон : 1,280
Режим частоты кадров : Постоянный
Частота кадров : 23,976 кадра/сек
Цветовое пространство : YUV
Субдискретизация насыщенности : 4:2:0
Битовая глубина : 8 бит
Тип развёртки : Прогрессивная
Метод сжатия : С потерями
Бит/(Пиксели*Кадры) : 0.227
Размер потока : 640 Мбайт (70%)
Заголовок : kosmoaelita
Библиотека кодирования : XviD 1.2.0.dev47 (UTC 2006-11-01)
Default : Да
Forced : Нет
Аудио #1
Идентификатор : 2
Формат : AC-3
Формат/Информация : Audio Coding 3
Расширение режима : CM (complete main)
Параметр Endianness формата : Big
Идентификатор кодека : A_AC3
Продолжительность : 1 ч. 20 м.
Вид битрейта : Постоянный
Битрейт : 192 Кбит/сек
Каналы : 2 канала
Расположение каналов : Front: L R
Частота : 48,0 КГц
Битовая глубина : 16 бит
Метод сжатия : С потерями
Размер потока : 110 Мбайт (12%)
Заголовок : Русский АО (В.Рутилов)
Язык : Russian
Default : Да
Forced : Нет
Аудио #2
Идентификатор : 3
Формат : MPEG Audio
Версия формата : Version 1
Профиль формата : Layer 3
Идентификатор кодека : A_MPEG/L3
Идентификатор кодека/Подсказка : MP3
Продолжительность : 1 ч. 20 м.
Вид битрейта : Переменный
Битрейт : 59,6 Кбит/сек
Номинальный битрейт : 64,0 Кбит/сек
Каналы : 1 канал
Частота : 48,0 КГц
Метод сжатия : С потерями
Размер потока : 34,3 Мбайт (4%)
Библиотека кодирования : LAME3.97
Настройки программы : -m m -V 4 -q 2 -lowpass 16.5 --abr 64
Язык : English
Default : Нет
Forced : Нет
Аудио #3
Идентификатор : 4
Формат : AC-3
Формат/Информация : Audio Coding 3
Расширение режима : CM (complete main)
Параметр Endianness формата : Big
Идентификатор кодека : A_AC3
Продолжительность : 1 ч. 20 м.
Вид битрейта : Постоянный
Битрейт : 192 Кбит/сек
Каналы : 2 канала
Расположение каналов : Front: L R
Частота : 48,0 КГц
Битовая глубина : 16 бит
Метод сжатия : С потерями
Размер потока : 110 Мбайт (12%)
Язык : German
Default : Нет
Forced : Нет

Скриншоты













Скринлист



Последний раз редактировалось: admin (2015-08-13 01:18), всего редактировалось 1 раз
[Профиль] [ЛС]

Трамвай-фильм

Пол: Мужской

Стаж: 4 года 3 месяца

Сообщений: 1335

Откуда: Россия

Создавать темы 18-Июл-2015 11:48 (спустя 23 минуты)

[Цитировать]

Итальянские фильмы в стиле пост-апокалипсиса?
[Профиль] [ЛС]

admin ®

Пол: Мужской

Стаж: 6 лет 2 месяца

Сообщений: 4731

Откуда: Україна

Создавать темы 18-Июл-2015 12:02 (спустя 14 минут)

[Цитировать]

Американский вроде... В Чили снимали.
[Профиль] [ЛС]
Показать сообщения:    
Ответить на тему

Текущее время: 14-Ноя 08:58

Часовой пояс: UTC + 3:30



Вы не можете начинать темы
Вы не можете отвечать на сообщения
Вы не можете редактировать свои сообщения
Вы не можете удалять свои сообщения
Вы не можете голосовать в опросах
Вы не можете прикреплять файлы к сообщениям
Вы не можете скачивать файлы