Космический призрак / Space Ghost (Джозеф Барбера, Уильям Ханна) [1966, США, Фантастика, приключения, DVDRip] (АО : Трамвай фильм)

Ответить на тему
Статистика раздачи
Размер:  6,94 GB   |    Зарегистрирован:  1 год 11 месяцев   |    Скачан:  5 раз

Сидов:

Пользователь ULR Отдано Скачано Отдача Загрузка
evilbuch 3 2237909544720,84 GB 0- 0- 0-
показаны данные только за текущую сессию
 
   
 
 
 
Автор Сообщение

Трамвай-фильм ®

Пол: Мужской

Стаж: 3 года 1 месяц

Сообщений: 1110

Откуда: Россия

Создавать темы 17-Июл-2015 14:56

[Цитировать]

Космический призрак / Space Ghost
Страна: США
Жанр: Фантастика, приключения
Год выпуска: 1966
Продолжительность: 00:07:00
Серии: 42 из 42.
Перевод: Авторский (одноголосый) Трамвай фильм
Режиссеры: Джозеф Барбера, Уильям Ханна
Описание: Супер-герой Космический призрак, со своими помощниками Джэн и Джэйсом оберегают Вселенную от различных моснтров и злодеев.
Доп. информация: Классические серии от Ханны-Барберы, транслировались по ТВ, ныне изданы на ДВД
Качество видео: DVDRip
Формат видео: MKV
Видео: MPEG4 Video (H264), 714x480, 29.97fps, 2 646 Kbps
Аудио: Dolby AC3, 48000Hz, mono, 192 kbps (англ)
Аудио 2: Dolby AC3, 48000Hz, стерео, 192 kbps (русс)

MediaInfo

Format : Matroska
Format version : Version 4 / Version 2
File size : 155 MiB
Duration : 6mn 59s
Overall bit rate : 3 092 Kbps
Encoded date : UTC 2015-07-17 10:03:42
Writing application : mkvmerge v7.8.0 ('River Man') 32bit built on Mar 27 2015 16:18:02
Writing library : libebml v1.3.1 + libmatroska v1.4.2
DURATION : 00:06:59.456000000
NUMBER_OF_FRAMES : 13108
NUMBER_OF_BYTES : 10066944
_STATISTICS_WRITING_APP : mkvmerge v7.8.0 ('River Man') 32bit built on Mar 27 2015 16:18:02
_STATISTICS_WRITING_DATE_UTC : 2015-07-17 10:03:42
_STATISTICS_TAGS : BPS DURATION NUMBER_OF_FRAMES NUMBER_OF_BYTES
Video
ID : 1
Format : AVC
Format/Info : Advanced Video Codec
Format profile : High@L4.1
Format settings, CABAC : Yes
Format settings, ReFrames : 4 frames
Codec ID : V_MPEG4/ISO/AVC
Duration : 6mn 59s
Bit rate : 2 646 Kbps
Width : 714 pixels
Height : 480 pixels
Display aspect ratio : 4:3
Frame rate mode : Constant
Frame rate : 29.970 fps
Color space : YUV
Chroma subsampling : 4:2:0
Bit depth : 8 bits
Scan type : Progressive
Bits/(Pixel*Frame) : 0.258
Stream size : 132 MiB (86%)
Default : Yes
Forced : No
Color primaries : BT.601 NTSC
Transfer characteristics : BT.709
Matrix coefficients : BT.601
Audio #1
ID : 2
Format : AC-3
Format/Info : Audio Coding 3
Mode extension : CM (complete main)
Format settings, Endianness : Big
Codec ID : A_AC3
Duration : 6mn 59s
Bit rate mode : Constant
Bit rate : 192 Kbps
Channel(s) : 1 channel
Channel positions : Front: C
Sampling rate : 48.0 KHz
Bit depth : 16 bits
Compression mode : Lossy
Delay relative to video : 12ms
Stream size : 9.60 MiB (6%)
Language : English
Default : No
Forced : No
Audio #2
ID : 3
Format : AC-3
Format/Info : Audio Coding 3
Mode extension : CM (complete main)
Format settings, Endianness : Big
Codec ID : A_AC3
Duration : 6mn 59s
Bit rate mode : Constant
Bit rate : 192 Kbps
Channel(s) : 2 channels
Channel positions : Front: L R
Sampling rate : 48.0 KHz
Bit depth : 16 bits
Compression mode : Lossy
Stream size : 9.60 MiB (6%)
Language : Russian
Default : Yes
Forced : Yes

Скриншоты



Скринлист

cd Рип дополнительно залит на ОБЛАКО cd2
Space.Ghost.1966.torrent
Торрент: Зарегистрирован [ 2015-10-11 20:12 ]

Скачать .torrent

Скачать

37 KB

Статус: проверено
Скачан: 5 раз
Размер: 6,94 GB
 


Последний раз редактировалось: Трамвай-фильм (2015-10-11 20:12), всего редактировалось 23 раз(а)
[Профиль] [ЛС]

admin

Пол: Мужской

Стаж: 5 лет

Сообщений: 4750

Откуда: Україна

Создавать темы 18-Июл-2015 00:28 (спустя 9 часов)

[Цитировать]

Вы немного небрежно делаете контейнер.
Из-за того, что русскую дорогу поставили второй (хоть и поставили галку Принудительно) - на облаке воспроизводится с англ. дорогой, тоесть без перевода.
Если нетрудно, переделайте при добавлении следующей серии
[Профиль] [ЛС]

Трамвай-фильм ®

Пол: Мужской

Стаж: 3 года 1 месяц

Сообщений: 1110

Откуда: Россия

Создавать темы 18-Июл-2015 11:05 (спустя 10 часов)

[Цитировать]

11421Вы немного небрежно делаете контейнер.
Из-за того, что русскую дорогу поставили второй (хоть и поставили галку Принудительно) - на облаке воспроизводится с англ. дорогой, тоесть без перевода.
Если нетрудно, переделайте при добавлении следующей серии
ОК. Учту этот косяк, хотя на онлайн-видеоплеере выдается именно русская дорожка.
[Профиль] [ЛС]

Трамвай-фильм ®

Пол: Мужской

Стаж: 3 года 1 месяц

Сообщений: 1110

Откуда: Россия

Создавать темы 11-Окт-2015 20:13 (спустя 2 месяца 24 дня)

[Цитировать]

перевод закончил - все серии!
[Профиль] [ЛС]

$Shorox

Пол: Мужской

Стаж: 4 года 9 месяцев

Сообщений: 1896

Создавать темы 11-Окт-2015 21:32 (спустя 1 час 19 минут)

[Цитировать]

Трамвай-фильм,
Спасибо большое.
[Профиль] [ЛС]

Трамвай-фильм ®

Пол: Мужской

Стаж: 3 года 1 месяц

Сообщений: 1110

Откуда: Россия

Создавать темы 11-Окт-2015 23:20 (спустя 1 час 48 минут)

[Цитировать]

Пжа. Если интересно могу еще несколько оных сериалов кинуть от Ханны-Барберы. Сэмплы ищи в 2-х последних сериях.
[Профиль] [ЛС]

$Shorox

Пол: Мужской

Стаж: 4 года 9 месяцев

Сообщений: 1896

Создавать темы 12-Окт-2015 10:10 (спустя 10 часов)

[Цитировать]

Трамвай-фильм,
Вчера к соседу зашёл. У него в подвале комната звукозаписи. Навороченая и по науке всё сделано. Акустический поролон, блоки стекловаты.
Он мне что рассказал: из наушников звук всё рано в микрофон попадает. Как у Вас.
[Профиль] [ЛС]

Трамвай-фильм ®

Пол: Мужской

Стаж: 3 года 1 месяц

Сообщений: 1110

Откуда: Россия

Создавать темы 12-Окт-2015 18:40 (спустя 8 часов)

[Цитировать]

12171Трамвай-фильм,
Он мне что рассказал: из наушников звук всё рано в микрофон попадает. Как у Вас.
Видно слишком близко к микрофону. На фоне записи фильма особо не слышно
[Профиль] [ЛС]
Показать сообщения:    
Ответить на тему

Текущее время: 23-Сен 07:30

Часовой пояс: UTC + 3:30



Вы не можете начинать темы
Вы не можете отвечать на сообщения
Вы не можете редактировать свои сообщения
Вы не можете удалять свои сообщения
Вы не можете голосовать в опросах
Вы не можете прикреплять файлы к сообщениям
Вы можете скачивать файлы