Падение / Alien Predators / The Falling / Mutant II / Cosmos Mortal (Deran Sarafian / Деран Сарафян) [1985, США, Испания, ужасы, фантастика, драма, BDRip-AVC] ПД (НТВ+), АО (В.Котов)

Reply to topic
DL-List and Torrent activity
Size:  1.87 GB   |    Registered:  1 year 9 months   |    Completed:  0 times

Seeder not seen: 1 year 9 months

 
   
 
 
 
Author Message

admin ®

Gender: Male

Longevity: 8 years

Posts: 4794

Post 13-Jul-2015 13:20

[Quote]

Падение / Alien Predators / The Falling / Mutant II / Cosmos Mortal
Страна: США, Испания, Continental Motion Pictures, M&C Films, Royal Films
Жанр: ужасы, фантастика, драма
Год выпуска: 1985
Продолжительность: 01:30:41
Перевод 1: ПД НТВ+
Перевод 2: Авторский (одноголосый) В.Котов
Режиссер: Deran Sarafian / Деран Сарафян
В ролях:
Dennis Christopher ... Damon
Martin Hewitt ... Michael, the Driver
Lynn-Holly Johnson ... Samantha 'Sam'
Luis Prendes ... Dr. W. Tracer, NASA
J.O. Bosso ... Capt. J.J. Wells
Yousaf Bokhari ... Mr. Bodi
Yolanda Palomo ... Mrs. Bodi
Christina Augustin ... Baby Bodi
Cristina San Juan ... Duarte Cafe Waitress (as Christina San Juan)
Pablo García Pérez de Lara ... Man in Store
Carlos Ramírez ... Gas Station Attendant
Описание: В 1979 году на территории Испании падает космическая станция "Скайлэб". Спустя пять лет трое друзей попадают в небольшой городок, с населением которого происходят непонятные вещи - её жители начинают страдать от обильного кровотечения, после чего в течение двух суток их тела и вовсе превращаются в кровавое месиво
Качество: BDRip-AVC
Формат: MKV
Видео: x264, 2300 кбит/с, 1024x554, 23.976 к/с, crf=19
Аудио 1: Русский ПД (НТВ+) (AC3, 2 ch, 192 Кбит/с)
Аудио 2: Русский АО (В.Котов) (AC3, 2 ch, 192 Кбит/с)
Аудио 3: Английский (AC3, 2 ch, 256 Кбит/с)
Субтитры : Английские
Работа над релизом:
Рип с BD25 с синематика и синхр. русских дорожек - kosmoaelita
Дорожка Котова - Релиз videodemons
https://www.blu-ray.com/movies/Alien-Predators-Blu-ray/200815/
[Alien Predators Blu-rayUnited States
The Falling Shout Factory | 1985 | 90 min | Rated R | Jun 19, 2018]



Пример русского перевода от Котова

Трейлер оффициальный

Дополнительно

слоган «Mankind's deadliest threat...HAS ARRIVED FROM THE SKIES»
Also Known As (AKA)
Mutant II
The Falling
Brazil Alien - O Predador
Spain Cosmos mortal
Finland Uhka avaruudesta
UK (video title) Mutant 2
Hungary Ismeretlen fenevad
Italy (TV title) Alien Predators
Norway The Falling
Poland Drapiezca z kosmosu
Sweden Parasiterna
USA (video title) Alien Predators
West Germany (video title) Alien Predator
Производство Май 1984 — Июнь 1984
Формат изображения: 1.85 : 1
Формат копии: 35 mm
Формат съёмок: 35 mm
Изображение: цветное
Язык: английский
================================================
Для Украины: рип и оригинальный ДВД дополнительно залиты в файлохранилище
Для удаления,добавления и извлечения дорожек в mkv используйте бесплатную портативную mkvmerge GUI 7.1.0
Для присоединения потом дорожек к avi воспользуйтесь VirtualDubMod

Знаете ли вы, что...

Отзывы

Котов жжет смайлик+
Вместо Скайлэб - Скайлаб, вместо 14 мая - 14 марта, слетел со своей орбиты... смайлик+
-------------------------------
перевод очень хороший и смешной
в классическом стиле ) там есть такие выражения как "дрисюсня" и "погнался жигуленок"

MediaInfo

Общее
Уникальный идентификатор : 198492958959098481181466373024477301976 (0x95545A748D32106FA32EB8EC571F4CD8)
Полное имя : N:\BD-DISC\Alien Predator 1986 1080p Blu-ray AVC DTS-HD MA 2.0-CultFilms™\The Falling aka Alien Predators 1985.x264.BDRip.AVC.2xRus.kosmoaelita.mkv
Формат : Matroska
Версия формата : Version 4 / Version 2
Размер файла : 1,87 Гбайт
Продолжительность : 1 ч. 30 м.
Общий поток : 2957 Кбит/сек
Название фильма : The Falling aka Alien Predators / 1985 / rip from BD25 by kosmoaelita (2018-11-27), crf=19.63
Дата кодирования : UTC 2018-11-27 07:17:55
Программа кодирования : mkvmerge v6.6.0 ('The Edge Of The In Between') built on Dec 1 2013 17:55:00
Библиотека кодирования : libebml v1.3.0 + libmatroska v1.4.1
Attachments : 00002.mkv.encoding.log / POSTER.jpg
Видео
Идентификатор : 1
Формат : AVC
Формат/Информация : Advanced Video Codec
Профиль формата : High@L4.1
Параметр CABAC формата : Да
Параметр ReFrames формата : 8 кадров
Идентификатор кодека : V_MPEG4/ISO/AVC
Продолжительность : 1 ч. 30 м.
Битрейт : 2300 Кбит/сек
Ширина : 1024 пикселя
Высота : 554 пикселя
Соотношение сторон : 1,85:1
Режим частоты кадров : Постоянный
Частота кадров : 23,976 кадра/сек
Цветовое пространство : YUV
Субдискретизация насыщенности : 4:2:0
Битовая глубина : 8 бит
Тип развёртки : Прогрессивная
Бит/(Пиксели*Кадры) : 0.169
Размер потока : 1,43 Гбайт (76%)
Заголовок : http://kosmoaelita.com/viewtopic.php?t=1880
Библиотека кодирования : x264 core 130 r2273 b3065e6
Настройки программы : cabac=1 / ref=8 / deblock=1:-1:-1 / analyse=0x3:0x133 / me=umh / subme=11 / psy=1 / psy_rd=0.99:0.14 / mixed_ref=1 / me_range=24 / chroma_me=1 / trellis=2 / 8x8dct=1 / cqm=0 / deadzone=21,11 / fast_pskip=1 / chroma_qp_offset=-3 / threads=6 / lookahead_threads=1 / sliced_threads=0 / nr=0 / decimate=1 / interlaced=0 / bluray_compat=0 / constrained_intra=0 / bframes=8 / b_pyramid=2 / b_adapt=2 / b_bias=0 / direct=3 / weightb=1 / open_gop=0 / weightp=2 / keyint=210 / keyint_min=21 / scenecut=40 / intra_refresh=0 / rc_lookahead=80 / rc=2pass / mbtree=1 / bitrate=2300 / ratetol=1.0 / qcomp=0.65 / qpmin=0 / qpmax=69 / qpstep=4 / cplxblur=20.0 / qblur=0.5 / ip_ratio=1.25 / aq=1:0.90
Язык : English
Default : Да
Forced : Нет
Цветовой диапазон : Limited
Основные цвета : BT.709
Характеристики трансфера : BT.709
Коэффициенты матрицы : BT.709
Аудио #1
Идентификатор : 2
Формат : AC-3
Формат/Информация : Audio Coding 3
Расширение режима : CM (complete main)
Параметр Endianness формата : Big
Идентификатор кодека : A_AC3
Продолжительность : 1 ч. 30 м.
Вид битрейта : Постоянный
Битрейт : 192 Кбит/сек
Каналы : 2 канала
Расположение каналов : Front: L R
Частота : 48,0 КГц
Частота кадров : 31,250 кадров/сек (1536 spf)
Метод сжатия : С потерями
Размер потока : 125 Мбайт (6%)
Заголовок : Русский ПД (НТВ+)
Язык : Russian
Default : Да
Forced : Нет
Аудио #2
Идентификатор : 3
Формат : AC-3
Формат/Информация : Audio Coding 3
Расширение режима : CM (complete main)
Параметр Endianness формата : Big
Идентификатор кодека : A_AC3
Продолжительность : 1 ч. 30 м.
Вид битрейта : Постоянный
Битрейт : 192 Кбит/сек
Каналы : 2 канала
Расположение каналов : Front: L R
Частота : 48,0 КГц
Частота кадров : 31,250 кадров/сек (1536 spf)
Метод сжатия : С потерями
Размер потока : 125 Мбайт (6%)
Заголовок : Русский АО (В.Котов)
Язык : Russian
Default : Нет
Forced : Нет
Аудио #3
Идентификатор : 4
Формат : AC-3
Формат/Информация : Audio Coding 3
Расширение режима : CM (complete main)
Параметр Endianness формата : Big
Идентификатор кодека : A_AC3
Продолжительность : 1 ч. 30 м.
Вид битрейта : Постоянный
Битрейт : 256 Кбит/сек
Каналы : 2 канала
Расположение каналов : Front: L R
Частота : 48,0 КГц
Частота кадров : 31,250 кадров/сек (1536 spf)
Метод сжатия : С потерями
Размер потока : 166 Мбайт (9%)
Язык : English
Default : Нет
Forced : Нет
Текст #1
Идентификатор : 5
Формат : UTF-8
Идентификатор кодека : S_TEXT/UTF8
Идентификатор кодека/Информация : UTF-8 Plain Text
Язык : English
Default : Да
Forced : Нет
Текст #2
Идентификатор : 6
Формат : PGS
Режим смешивания : zlib
Идентификатор кодека : S_HDMV/PGS
Идентификатор кодека/Информация : Picture based subtitle format used on BDs/HD-DVDs
Заголовок : SDH
Язык : English
Default : Нет
Forced : Нет
Меню
00:00:00.000 : en:00:00:00.000
00:08:28.466 : en:00:08:28.466
00:17:11.572 : en:00:17:11.572
00:24:21.627 : en:00:24:21.627
00:30:01.758 : en:00:30:01.758
00:37:36.671 : en:00:37:36.671
00:45:20.259 : en:00:45:20.259
00:53:07.976 : en:00:53:07.976
01:00:47.519 : en:01:00:47.519
01:10:00.530 : en:01:10:00.530
01:17:50.916 : en:01:17:50.916
01:25:12.107 : en:01:25:12.107
01:30:40.435 : en:01:30:40.435

Скриншоты














Скринлист

cd Рип дополнительно залит на ОБЛАКО cd2
The Falling aka Alien Predators 1985.x264.BDRip.AVC.2xRus.kosmoaelita.mkv.torrent
Torrent: Registered [ 2018-11-27 10:20 ]

Download .torrent

Download

19 KB

Status: checked
Completed: 0 times
Size: 1.87 GB
 


Last edited by admin on 2015-08-21 23:24; edited 2 times in total
[Profile] [PM]

admin ®

Gender: Male

Longevity: 8 years

Posts: 4794

Post 21-Aug-2015 23:17 (after 1 month 8 days)

[Quote]

Добавлен ПД перевод от НТВ+
Кассетный рип заменен на SATRip
В папке на облаке остались оба варианта
[Profile] [PM]

Трамвай-фильм

Gender: Male

Longevity: 6 years 1 month

Posts: 1863

Location: Россия

Post 22-Aug-2015 11:09 (after 11 hours)

[Quote]

Вообще-то Скайлэб упала в тихий океан, и кажется какая-то ее деталь убила убила корову в Австралии.
[Profile] [PM]

admin ®

Gender: Male

Longevity: 8 years

Posts: 4794

Post 22-Aug-2015 11:23 (after 13 minutes)

[Quote]

Несгоревшие обломки. вроде, прямо на Австралию
Центр управления полётом сориентировал станцию на вход в атмосферу в 16:37 по Гринвичу 11 июля 1979. Районом затопления станции предполагалась точка в 1300 км южнее Кейптауна, ЮАР. Однако ошибка в расчетах в пределах 4 % и тот факт, что станция разрушалась медленнее, чем предполагалось, привели к смещению точки падения несгоревших обломков: часть из них упала в западной Австралии южнее города Перт. Некоторые обломки были обнаружены между городами Эсперанс и Роулинна и сейчас экспонируются в музеях.
[Profile] [PM]

Трамвай-фильм

Gender: Male

Longevity: 6 years 1 month

Posts: 1863

Location: Россия

Post 22-Aug-2015 11:48 (after 25 minutes)

[Quote]

11841Несгоревшие обломки. вроде, прямо на Австралию
Ну вот это я и помню. там вроде корову убило и фермер выкатил огромный счет США.
[Profile] [PM]

Guest

Gender: Unknown

Longevity: 50 years

Post 27-Nov-2018 04:54 (after 3 years 3 months)

[Quote]

Замена на BDRip-AVC
http://screenshotcomparison.com/comparison/125031

[Profile] [PM]
Display posts:    
Reply to topic

Current time is: 23-Sep 09:29

All times are UTC + 3



You cannot post new topics in this forum
You cannot reply to topics in this forum
You cannot edit your posts in this forum
You cannot delete your posts in this forum
You cannot vote in polls in this forum
You cannot attach files in this forum
You can download files in this forum