Инопланетяне в Токио / Предупреждение из космоса / Uchûjin Tôkyô ni arawaru / Warning from space (Коджи Шима / Koji Shima) [1956 г., фантастика, драма, BDRip-1080p, BDRip] ЛО (den904), СТ (il palazzo-Sama)

Reply to topic
 
Author Message

Guest ®

Gender: Unknown

Post 21-Sep-2012 10:47

[Quote]

Инопланетяне в Токио / Предупреждение из космоса / Uchûjin Tôkyô ni arawaru / Warning from space
Год выпуска: 1956
Страна: Япония, Daiei Studios
Жанр: фантастика, драма
Продолжительность: 01:26:38
Перевод: ЛО den904 по субтитрам от il palazzo-Sama
Режиссер: Коджи Шима / Koji Shima
В ролях: Keizo Kawasaki Toyomi Karita Bin Yagisawa Shozo Nanbu Bontarô Miake Isao Yamagata
Описание: На Землю прибывают разумные одноглазые морские звёзды с планеты Паира и предупреждают землян об опастности столкновения Земли с приближающейся к ней планетой «R»....
Качество: BDRip-1080p
Формат: MKV
Видео: x264, 11500 кбит/с, 1440x1078, 23.76 к/с
Аудио 1: Русский ЛО (den904) (AC3, 2 ch, 384 Кбит/с)
Аудио 2: Японский (AC3, 2 ch, 384 Кбит/с)
Аудио 2: Английский Commentary Author Stuart Galbraith IV(AC3, 2 ch, 128 Кбит/с)
Субтитры : Русские (il palazzo-Sama), английские
================================
Качество: BDRip
Формат: MKV
Видео: x264, 2600 кбит/с, 768x576, 23.76 к/с
Аудио 1: Русский ЛО (den904) (AC3, 2 ch, 192 Кбит/с)
Аудио 2: Японский (AC3, 2 ch, 192 Кбит/с)
Субтитры : Русские (il palazzo-Sama), английские


Пример русской озвучки:

Работа над релизом:
Рип с японского BD - kosmoaelita
Перевод с английских субтитров - il palazzo-Sama
Субтитры с рутрекера оказались совсем не синхронизированы.
Пришлось более-менее проделать эту работу.
Плюс субтитры делались к англ. изданию.Так что перевод иногда не совсем подходит.
Русская озвучка по заказу kosmoaelita - den904
Спонсор русской озвучки - А.Берг

Дополнительно

Also Known As (AKA)
Asalto a la tierra Spain
Le Satellite mystérieux France
Space Men Appear in Tokyo (undefined) (informal literal English title)
Spacepeople Appear in Tokyo (undefined) (informal literal English title)
The Cosmic Man Appears in Tokyo (undefined)
The Mysterious Satellite (undefined)
Unknown Satellite Over Tokyo (undefined)
Warning from Space USA

Рецензия

MediaInfo 1080p

Общее
Уникальный идентификатор : 234300070157910689615575740599440483147 (0xB0448D570285EC84A84B489BBC47A34B)
Полное имя : F:\Uchujin Tokyo ni arawar 1956.x264.BDRip.1080p.Rus.kosmoaelita.mkv
Формат : Matroska
Версия формата : Version 4
Размер файла : 7,67 Гбайт
Продолжительность : 1 ч. 26 м.
Общий поток : 12,7 Мбит/сек
Название фильма : Uchûjin Tôkyô ni arawaru AKA Warning from Space [1956] - Релиз kosmoaelita.com
Дата кодирования : UTC 2021-07-03 06:32:56
Программа кодирования : mkvmerge v6.6.0 ('The Edge Of The In Between') built on Dec 1 2013 17:55:00
Библиотека кодирования : libebml v1.3.0 + libmatroska v1.4.1
Attachments : poster.jpg
Видео
Идентификатор : 1
Формат : AVC
Формат/Информация : Advanced Video Codec
Профиль формата : High@L4.1
Настройки формата : CABAC / 5 Ref Frames
Параметр CABAC формата : Да
Параметр RefFrames формата : 5 кадров
Идентификатор кодека : V_MPEG4/ISO/AVC
Продолжительность : 1 ч. 26 м.
Битрейт : 11,5 Мбит/сек
Ширина : 1440 пикселей
Высота : 1078 пикселей
Соотношение сторон : 4:3
Режим частоты кадров : Постоянный
Частота кадров : 23,976 (24000/1001) кадра/сек
Цветовое пространство : YUV
Субдискретизация насыщенности : 4:2:0
Битовая глубина : 8 бит
Тип развёртки : Прогрессивная
Бит/(Пиксели*Кадры) : 0.310
Размер потока : 6,97 Гбайт (91%)
Заголовок : http://kosmoaelita.com/viewtopic.php?t=187
Библиотека кодирования : x264 core 157 r2935 545de2f
Настройки программы : cabac=1 / ref=5 / deblock=1:-3:-3 / analyse=0x3:0x133 / me=umh / subme=10 / psy=1 / psy_rd=1.00:0.00 / mixed_ref=1 / me_range=32 / chroma_me=1 / trellis=2 / 8x8dct=1 / cqm=0 / deadzone=21,11 / fast_pskip=0 / chroma_qp_offset=-2 / threads=34 / lookahead_threads=8 / sliced_threads=0 / nr=0 / decimate=0 / interlaced=0 / bluray_compat=0 / constrained_intra=0 / bframes=16 / b_pyramid=2 / b_adapt=2 / b_bias=0 / direct=3 / weightb=1 / open_gop=0 / weightp=2 / keyint=240 / keyint_min=24 / scenecut=40 / intra_refresh=0 / rc_lookahead=60 / rc=crf / mbtree=0 / crf=24.0 / qcomp=0.60 / qpmin=0 / qpmax=69 / qpstep=4 / vbv_maxrate=62500 / vbv_bufsize=78125 / crf_max=0.0 / nal_hrd=none / filler=0 / ip_ratio=1.40 / pb_ratio=1.30 / aq=2:1.00
Язык : Japanese
Default : Да
Forced : Нет
Цветовой диапазон : Limited
Основные цвета : BT.709
Характеристики трансфера : BT.709
Коэффициенты матрицы : BT.709
Аудио #1
Идентификатор : 2
Формат : AC-3
Формат/Информация : Audio Coding 3
Коммерческое название : Dolby Digital
Идентификатор кодека : A_AC3
Продолжительность : 1 ч. 26 м.
Вид битрейта : Постоянный
Битрейт : 384 Кбит/сек
Каналы : 2 канала
ChannelLayout : L R
Частота : 48,0 КГц
Частота кадров : 31,250 кадров/сек (1536 SPF)
Метод сжатия : С потерями
Размер потока : 238 Мбайт (3%)
Заголовок : Русский ЛО (den904 для сайта kosmoaelita)
Язык : Russian
ServiceKind/String : Complete Main
Default : Да
Forced : Нет
Аудио #2
Идентификатор : 3
Формат : AC-3
Формат/Информация : Audio Coding 3
Коммерческое название : Dolby Digital
Идентификатор кодека : A_AC3
Продолжительность : 1 ч. 26 м.
Вид битрейта : Постоянный
Битрейт : 384 Кбит/сек
Каналы : 2 канала
ChannelLayout : L R
Частота : 48,0 КГц
Частота кадров : 31,250 кадров/сек (1536 SPF)
Метод сжатия : С потерями
Размер потока : 238 Мбайт (3%)
Язык : Japanese
ServiceKind/String : Complete Main
Default : Нет
Forced : Нет
Аудио #3
Идентификатор : 4
Формат : AC-3
Формат/Информация : Audio Coding 3
Коммерческое название : Dolby Digital
Идентификатор кодека : A_AC3
Продолжительность : 1 ч. 26 м.
Вид битрейта : Постоянный
Битрейт : 128 Кбит/сек
Каналы : 2 канала
ChannelLayout : L R
Частота : 48,0 КГц
Частота кадров : 31,250 кадров/сек (1536 SPF)
Метод сжатия : С потерями
Размер потока : 79,3 Мбайт (1%)
Заголовок : Commentary with Author Stuart Galbraith IV
Язык : English
ServiceKind/String : Complete Main
Default : Нет
Forced : Нет
Текст #1
Идентификатор : 5
Формат : UTF-8
Идентификатор кодека : S_TEXT/UTF8
Идентификатор кодека/Информация : UTF-8 Plain Text
Заголовок : Русский (il palazzo-Sama) srt
Язык : Russian
Default : Да
Forced : Нет
Текст #2
Идентификатор : 6
Формат : PGS
Режим смешивания : zlib
Идентификатор кодека : S_HDMV/PGS
Идентификатор кодека/Информация : Picture based subtitle format used on BDs/HD-DVDs
Заголовок : Русский (il palazzo-Sama) PGS
Язык : Russian
Default : Нет
Forced : Нет
Текст #3
Идентификатор : 7
Формат : UTF-8
Идентификатор кодека : S_TEXT/UTF8
Идентификатор кодека/Информация : UTF-8 Plain Text
Заголовок : SDH
Язык : English
Default : Нет
Forced : Нет
Меню
00:00:00.000 : :Chapter 1
00:07:12.933 : :Chapter 2
00:14:32.830 : :Chapter 3
00:21:24.867 : :Chapter 4
00:26:56.824 : :Chapter 5
00:35:34.633 : :Chapter 6
00:43:45.623 : :Chapter 7
00:50:00.873 : :Chapter 8
00:57:54.179 : :Chapter 9
01:04:05.175 : :Chapter 10
01:12:41.399 : :Chapter 11
01:19:42.278 : :Chapter 12

MediaInfo BDRip

Общее
Уникальный идентификатор : 210499294385689694444151557227014438915 (0x9E5CB07EADFEE69CB3F0F8494786C003)
Полное имя : F:\Uchujin Tokyo ni arawar 1956.x264.BDRip.Rus.kosmoaelita.mkv
Формат : Matroska
Версия формата : Version 4
Размер файла : 1,81 Гбайт
Продолжительность : 1 ч. 26 м.
Общий поток : 2986 Кбит/сек
Название фильма : Uchûjin Tôkyô ni arawaru AKA Warning from Space [1956] - rip from BDRip-1080p by kosmoaelita (2021-07-00), crf=21.60
Дата кодирования : UTC 2021-07-03 13:11:06
Программа кодирования : mkvmerge v6.6.0 ('The Edge Of The In Between') built on Dec 1 2013 17:55:00
Библиотека кодирования : libebml v1.3.0 + libmatroska v1.4.1
Attachments : Uchujin.tokyo.ni.arawaru.AKA.Warning.from.Space.1956. (1).log / poster.jpg
Видео
Идентификатор : 1
Формат : AVC
Формат/Информация : Advanced Video Codec
Профиль формата : High@L4.1
Настройки формата : CABAC / 8 Ref Frames
Параметр CABAC формата : Да
Параметр RefFrames формата : 8 кадров
Идентификатор кодека : V_MPEG4/ISO/AVC
Продолжительность : 1 ч. 26 м.
Битрейт : 2600 Кбит/сек
Ширина : 768 пикселей
Высота : 576 пикселей
Соотношение сторон : 4:3
Режим частоты кадров : Постоянный
Частота кадров : 23,976 кадра/сек
Цветовое пространство : YUV
Субдискретизация насыщенности : 4:2:0
Битовая глубина : 8 бит
Тип развёртки : Прогрессивная
Бит/(Пиксели*Кадры) : 0.245
Размер потока : 1,54 Гбайт (85%)
Заголовок : http://kosmoaelita.com/viewtopic.php?t=187
Библиотека кодирования : x264 core 146 r2538 121396c
Настройки программы : cabac=1 / ref=8 / deblock=1:-2:-2 / analyse=0x3:0x131 / me=umh / subme=11 / psy=1 / psy_rd=0.99:0.14 / mixed_ref=1 / me_range=24 / chroma_me=1 / trellis=2 / 8x8dct=1 / cqm=0 / deadzone=21,11 / fast_pskip=1 / chroma_qp_offset=-3 / threads=6 / lookahead_threads=1 / sliced_threads=0 / nr=0 / decimate=1 / interlaced=0 / bluray_compat=0 / constrained_intra=0 / bframes=8 / b_pyramid=2 / b_adapt=2 / b_bias=0 / direct=3 / weightb=1 / open_gop=0 / weightp=2 / keyint=210 / keyint_min=21 / scenecut=40 / intra_refresh=0 / rc_lookahead=80 / rc=2pass / mbtree=1 / bitrate=2600 / ratetol=1.0 / qcomp=0.65 / qpmin=0 / qpmax=69 / qpstep=4 / cplxblur=20.0 / qblur=0.5 / ip_ratio=1.25 / aq=1:0.90
Язык : English
Default : Да
Forced : Нет
Цветовой диапазон : Limited
Основные цвета : BT.709
Характеристики трансфера : BT.709
Коэффициенты матрицы : BT.709
Аудио #1
Идентификатор : 2
Формат : AC-3
Формат/Информация : Audio Coding 3
Коммерческое название : Dolby Digital
Идентификатор кодека : A_AC3
Продолжительность : 1 ч. 26 м.
Вид битрейта : Постоянный
Битрейт : 192 Кбит/сек
Каналы : 2 канала
ChannelLayout : L R
Частота : 48,0 КГц
Частота кадров : 31,250 кадров/сек (1536 SPF)
Метод сжатия : С потерями
Размер потока : 119 Мбайт (6%)
Заголовок : Русский ЛО (den904 для сайта kosmoaelita)
Язык : Russian
ServiceKind/String : Complete Main
Default : Да
Forced : Нет
Аудио #2
Идентификатор : 3
Формат : AC-3
Формат/Информация : Audio Coding 3
Коммерческое название : Dolby Digital
Идентификатор кодека : A_AC3
Продолжительность : 1 ч. 26 м.
Вид битрейта : Постоянный
Битрейт : 192 Кбит/сек
Каналы : 2 канала
ChannelLayout : L R
Частота : 48,0 КГц
Частота кадров : 31,250 кадров/сек (1536 SPF)
Метод сжатия : С потерями
Размер потока : 119 Мбайт (6%)
Язык : Japanese
ServiceKind/String : Complete Main
Default : Нет
Forced : Нет
Текст #1
Идентификатор : 4
Формат : UTF-8
Идентификатор кодека : S_TEXT/UTF8
Идентификатор кодека/Информация : UTF-8 Plain Text
Заголовок : Русский (il palazzo-Sama) srt
Язык : Russian
Default : Да
Forced : Нет
Текст #2
Идентификатор : 5
Формат : UTF-8
Идентификатор кодека : S_TEXT/UTF8
Идентификатор кодека/Информация : UTF-8 Plain Text
Заголовок : SDH
Язык : English
Default : Нет
Forced : Нет
Меню
00:00:00.000 : :Chapter 1
00:07:12.933 : :Chapter 2
00:14:32.830 : :Chapter 3
00:21:24.867 : :Chapter 4
00:26:56.824 : :Chapter 5
00:35:34.633 : :Chapter 6
00:43:45.623 : :Chapter 7
00:50:00.873 : :Chapter 8
00:57:54.179 : :Chapter 9
01:04:05.175 : :Chapter 10
01:12:41.399 : :Chapter 11
01:19:42.278 : :Chapter 12

Пример субтитров

1
00:02:03,900 --> 00:02:03,900
Инопланетяне в Токио!
(Uchûjin Tôkyô ni arawaru)
(Warning from space, 1956г)
2
00:02:19,900 --> 00:02:21,734
- Доктор Камура.
- О, Хосино.
3
00:02:21,800 --> 00:02:23,433
- Привет.
- Рад встрече с тобой.
4
00:02:23,634 --> 00:02:26,500
Надеюсь, нам удастся поговорить.
Зайдём в кафе?
5
00:02:26,533 --> 00:02:27,567
Да, как обычно.
6
00:02:27,634 --> 00:02:30,101
- Пригнись
- О, спасибо.
7
00:02:58,567 --> 00:02:59,634
Вот и пришли.
8
00:02:59,834 --> 00:03:01,934
О, добрый вечер, доктор Камура.
9
00:03:02,533 --> 00:03:03,767
Ужасная погода, не правда ли?
10
00:03:03,800 --> 00:03:08,134
Несмотря на дождь за окном, солнце всегда
сияет во Вселенной этого кафе.
11
00:03:08,467 --> 00:03:10,500
Никакой дождь не закроет вид планет.
12
00:03:10,767 --> 00:03:14,067
О, нет-нет, скорее, наоборот.
Доктор всегда глядит в телескоп,
13
00:03:14,101 --> 00:03:15,800
Так что дождь
даст его глазам отдохнуть.
14
00:03:18,867 --> 00:03:21,400
Могу предложить вам
немного подогретого сакэ, доктор?
15
00:03:21,600 --> 00:03:22,400
Да, спасибо.
16
00:03:23,867 --> 00:03:26,167
Доктор, это моя последняя статья
о летающих тарелках.
17
00:03:28,034 --> 00:03:31,101
Летающий объект, наблюдавшийся
в течение последних нескольких дней...
18
00:03:31,467 --> 00:03:35,467
Был описан наблюдателями,
как "летающая тарелка".
19
00:03:35,700 --> 00:03:37,600
Давно не было официальных комментариев.
20
00:03:37,934 --> 00:03:40,134
Почему это, доктор?

Скриншоты

















Скринлист

Файл дополнительно залит на ОБЛАКО
 

admin

Gender: Male

Longevity: 9 years 1 month

Posts: 4771

Post 27-Oct-2012 00:07 (after 1 month 5 days)

[Quote]

Торрент перезалит
[Profile] [PM]

Guest ®

Gender: Unknown

Post 30-Oct-2012 14:47 (after 2 days)

[Quote]

23,976 кадра/сек
и почему дольше идет? на двд были трейлеры, их что ли оставил,или я припоминаю что когда мужик ест там не было перевода (и я вырезал) так как я нашел в 2007 году субтитры к американской версии фильма (чудом нашел), ну с подгоном были траблы,но вроде подогнал.
Есть кстати еще фильм про вторжение в Японию чужаков,но ни сабов ни переводчика нет на этот фильм, все названия к японским фильмам мне переводила в 2009 году знакомая, которая японский в УрФУ преподает
 

admin

Gender: Male

Longevity: 9 years 1 month

Posts: 4771

Post 30-Oct-2012 16:11 (after 1 hour 24 minutes)

[Quote]

Нет, здесь только сам фильм.Несколько минут здесь лишних вначале фильма.На них нет перевода.
[Profile] [PM]

Guest ®

Gender: Unknown

Post 25-Jun-2014 08:24 (after 1 year 7 months)

[Quote]

другая версия
https://archive.org/details/WarningFromSpaceImproved1
полнее,не знаю почему
 

admin

Gender: Male

Longevity: 9 years 1 month

Posts: 4771

Post 25-Jun-2014 10:34 (after 2 hours 9 minutes)

[Quote]

5611другая версия
https://archive.org/details/WarningFromSpaceImproved1
полнее,не знаю почему
Там американская версия - вначале прилепили минутное вступление от другого фильма
[Profile] [PM]

admin

Gender: Male

Longevity: 9 years 1 month

Posts: 4771

Post 09-Jan-2015 15:18 (after 6 months 14 days)

[Quote]

Добавлена русская озвучка от ден904
[Profile] [PM]

kosmoaelita

Gender: Male

Longevity: 9 years 1 month

Posts: 1834

Post 25-Aug-2021 17:02 (after 6 years 7 months)

[Quote]

Замена на BDRip-1080p
[Profile] [PM]
Display posts:    
Reply to topic

Current time is: 24-Oct 12:50

All times are UTC + 3



You cannot post new topics in this forum
You cannot reply to topics in this forum
You cannot edit your posts in this forum
You cannot delete your posts in this forum
You cannot vote in polls in this forum
You cannot attach files in this forum
You cannot download files in this forum