Звездный крейсер: Восстание / Starship: Rising / Starship Rising (Neil Johnson / Нил Джонсон) [2014, США, фантастика, боевик, BDRip-1080p] ЛО (den904), СТ (kosmoaelita, koto2008)

Ответить на тему
Статистика раздачи
Размер:  5,32 GB   |    Зарегистрирован:  3 года 4 месяца   |    Скачан:  2 раза

Полного источника не было: 1 год 3 месяца

 
   
 
 
 
Автор Сообщение

admin ®

Пол: Мужской

Стаж: 6 лет 2 месяца

Сообщений: 4731

Откуда: Україна

Создавать темы 15-Июн-2015 23:39

[Цитировать]

Звездный крейсер: Восстание / Starship: Rising / Starship Rising
Релиз - kosmoaelita.com
Страна: США, Circle Pictures, Empire Motion Pictures, Morphius Film
Жанр: фантастика, боевик
Год выпуска: 2014
Продолжительность: 01:31:45
Перевод: Субтитры _ koto2008
Режиссер: Neil Johnson / Нил Джонсон
В ролях:
Darren Jacobs ... John Worthy
Emii ... Jolli (as Emily Rose Morrison)
Brooke Lewis ... Staris
Claudia Wells ... Captain Savage
E.J. De La Pena ... Torgus
Ralph Guzzo ... General Gustav
Rajia Baroudi ... Czarina
Marilyn Ghigliotti ... Xarsis
Christina Marie Moses ... Diana
Lynn Ayala ... Marta
Breck Gallini ... Seethus
Christian Anderson ... Drayson
Joshua Paul Miller ... Roartak
Neil Johnson ... Overseer (voice)
Rest of cast listed alphabetically:
John Alton ... Decon Quinn
Описание: Звездный крейсер 1 - самый мощный корабль Федерации, способный разрушать целые миры. После получения приказа об уничтожении Земли, лейтенант Джон Уорти поднимает бунт на корабле и бросает вызов мощи Федерации.

Релиз

Качество: BDRip-1080p
Формат: MKV
Видео: x264, 4834 кбит/с, 1920x984, 23.976 к/с, crf=20
Аудио 1: Русский ЛО (den904) (DTS, 6 ch, 1510 Кбит/с)
Аудио 2: Русский ЛО (den904) (AC3, 6 ch, 448 Кбит/с)
Аудио 3: Английский (AC3, 6 ch, 384 Кбит/с)
Субтитры : Русские (kosmoaelita, koto2008, Severnyj), английские
Работа над релизом:
Релиз kosmoaelita.
Видеоряд найден в сети.
Перевод с корявых англ. субтитров по заказу kosmoaelita - koto2008,
Русская озвучка по заказу kosmoaelita - den904
Субтитровый перевод недостающих фрагментов блю-рей версии - Severnyj.
Вся работа по синхрону и таймингу - kosmoaelita



Пример русской озвучки и субтитров

Трейлер

Дополнительно

бюджет $3 000 000
Also Known As (AKA)
Serbia Svemirska krstarica: Ustanak
================================================
Для Украины: рип и оригинальный ДВД дополнительно залиты в файлохранилище
Для удаления,добавления и извлечения дорожек в mkv используйте бесплатную портативную mkvmerge GUI 7.1.0
Для присоединения потом дорожек к avi воспользуйтесь VirtualDubMod

Отзывы

Русская версия фильма попала в открытый доступ только лишь благодаря ворюгам из Синемании, в частности главной крысе русского инета - беглому Интерфильму. А вы теперь еще и обсираете то. что вам не должно быть доступно. Тетр абсурда и зрители дауны!

Рецензия

MediaInfo

Общее
Уникальный идентификатор : 175314259671997855100563561719913987332 (0x83E44C5953FBBE10BE393DB8C4EB3D04)
Полное имя : F:\Starship Rising 2014.x264.BDRip.1080p.Rus.kosmoaelita.mkv
Формат : Matroska
Версия формата : Version 4 / Version 2
Размер файла : 5,32 Гбайт
Продолжительность : 1 ч. 31 м.
Общий поток : 8301 Кбит/сек
Название фильма : Starship Rising / Звездный крейсер: Восстание / 2014 / Релиз kosmoaelita.com
Дата кодирования : UTC 2015-06-15 19:49:05
Программа кодирования : mkvmerge v6.6.0 ('The Edge Of The In Between') built on Dec 1 2013 17:55:00
Библиотека кодирования : libebml v1.3.0 + libmatroska v1.4.1
Attachements : starship rising-1080p форс BD - DVD.srt
DURATION : 01:31:45.355000000
NUMBER_OF_FRAMES : 516127
NUMBER_OF_BYTES : 792771072
_STATISTICS_WRITING_APP : mkvmerge v7.6.0 ('Garden of Dreams') 64bit built on Feb 8 2015 13:04:34
_STATISTICS_WRITING_DATE_UTC : 2015-05-22 20:40:24
_STATISTICS_TAGS : BPS DURATION NUMBER_OF_FRAMES NUMBER_OF_BYTES
Видео
Идентификатор : 1
Формат : AVC
Формат/Информация : Advanced Video Codec
Профиль формата : High@L4.1
Параметр CABAC формата : Да
Параметр ReFrames формата : 4 кадра
Идентификатор кодека : V_MPEG4/ISO/AVC
Продолжительность : 1 ч. 31 м.
Битрейт : 4834 Кбит/сек
Ширина : 1920 пикселей
Высота : 984 пикселя
Соотношение сторон : 1,951
Режим частоты кадров : Постоянный
Частота кадров : 23,976 кадра/сек
Цветовое пространство : YUV
Субдискретизация насыщенности : 4:2:0
Битовая глубина : 8 бит
Тип развёртки : Прогрессивная
Бит/(Пиксели*Кадры) : 0.107
Размер потока : 3,10 Гбайт (58%)
Заголовок : kosmoaelita
Библиотека кодирования : x264 core 146 r2538 121396c
Настройки программы : cabac=1 / ref=4 / deblock=1:0:0 / analyse=0x3:0x113 / me=umh / subme=7 / psy=1 / psy_rd=1.00:0.00 / mixed_ref=1 / me_range=16 / chroma_me=1 / trellis=1 / 8x8dct=1 / cqm=0 / deadzone=21,11 / fast_pskip=0 / chroma_qp_offset=-2 / threads=12 / lookahead_threads=2 / sliced_threads=0 / nr=0 / decimate=1 / interlaced=0 / bluray_compat=0 / constrained_intra=0 / bframes=3 / b_pyramid=2 / b_adapt=1 / b_bias=0 / direct=1 / weightb=1 / open_gop=0 / weightp=2 / keyint=250 / keyint_min=23 / scenecut=40 / intra_refresh=0 / rc_lookahead=40 / rc=crf / mbtree=1 / crf=20.0 / qcomp=0.60 / qpmin=0 / qpmax=69 / qpstep=4 / ip_ratio=1.40 / aq=1:1.00
Язык : English
Default : Да
Forced : Нет
DURATION : 01:31:45.292000000
NUMBER_OF_FRAMES : 131995
NUMBER_OF_BYTES : 3436068875
_STATISTICS_WRITING_APP : mkvmerge v7.6.0 ('Garden of Dreams') 64bit built on Feb 8 2015 13:04:34
_STATISTICS_WRITING_DATE_UTC : 2015-05-22 20:40:24
_STATISTICS_TAGS : BPS DURATION NUMBER_OF_FRAMES NUMBER_OF_BYTES
Аудио #1
Идентификатор : 2
Формат : DTS
Формат/Информация : Digital Theater Systems
Режим : 16
Параметр Endianness формата : Big
Идентификатор кодека : A_DTS
Продолжительность : 1 ч. 31 м.
Вид битрейта : Постоянный
Битрейт : 1510 Кбит/сек
Каналы : 6 каналов
Расположение каналов : Front: L C R, Side: L R, LFE
Частота : 48,0 КГц
Битовая глубина : 24 бит
Метод сжатия : С потерями
Размер потока : 991 Мбайт (18%)
Заголовок : Русский ЛО (den904 для kosmoaelita.com) DTS 5.1 1510
Язык : Russian
Default : Да
Forced : Нет
Аудио #2
Идентификатор : 3
Формат : AC-3
Формат/Информация : Audio Coding 3
Расширение режима : CM (complete main)
Параметр Endianness формата : Big
Идентификатор кодека : A_AC3
Продолжительность : 1 ч. 31 м.
Вид битрейта : Постоянный
Битрейт : 640 Кбит/сек
Каналы : 6 каналов
Расположение каналов : Front: L C R, Side: L R, LFE
Частота : 48,0 КГц
Битовая глубина : 16 бит
Метод сжатия : С потерями
Размер потока : 420 Мбайт (8%)
Заголовок : Русский ЛО (den904 для kosmoaelita.com) AC3 5.1 640
Язык : Russian
Default : Нет
Forced : Нет
Аудио #3
Идентификатор : 4
Формат : DTS
Формат/Информация : Digital Theater Systems
Режим : 16
Параметр Endianness формата : Big
Идентификатор кодека : A_DTS
Продолжительность : 1 ч. 31 м.
Вид битрейта : Постоянный
Битрейт : 1152 Кбит/сек
Каналы : 6 каналов
Расположение каналов : Front: L C R, Side: L R, LFE
Частота : 48,0 КГц
Битовая глубина : 24 бит
Метод сжатия : С потерями
Размер потока : 756 Мбайт (14%)
Язык : English
Default : Нет
Forced : Нет
Текст #1
Идентификатор : 5
Формат : VobSub
Режим смешивания : zlib
Идентификатор кодека : S_VOBSUB
Идентификатор кодека/Информация : The same subtitle format used on DVDs
Заголовок : Русский fors (kosmoaelita,Severnyj) перевод на слух с англ. фрагменты с BD25
Язык : Russian
Default : Да
Forced : Нет
Текст #2
Идентификатор : 6
Формат : VobSub
Режим смешивания : zlib
Идентификатор кодека : S_VOBSUB
Идентификатор кодека/Информация : The same subtitle format used on DVDs
Заголовок : Русский (kosmoaelita,koto2008) VobSub перевод с англ. сабов
Язык : Russian
Default : Нет
Forced : Нет
Текст #3
Идентификатор : 7
Формат : UTF-8
Идентификатор кодека : S_TEXT/UTF8
Идентификатор кодека/Информация : UTF-8 Plain Text
Заголовок : Русский (kosmoaelita,koto2008) srt перевод с англ. сабов
Язык : Russian
Default : Нет
Forced : Нет
Меню
00:00:00.000 : en:00:00:00.000
00:09:59.974 : en:00:09:59.974
00:19:59.990 : en:00:19:59.990
00:29:59.965 : en:00:29:59.965
00:39:59.981 : en:00:39:59.981
00:49:59.997 : en:00:49:59.997
00:59:59.971 : en:00:59:59.971
01:09:59.987 : en:01:09:59.987
01:19:59.962 : en:01:19:59.962

Пример субтитров

1
00:00:03,136 --> 00:00:08,246
Стилл найт монстэрс фильм
2
00:00:13,136 --> 00:00:18,246
Памяти Филипа Бархема
3
00:00:20,897 --> 00:00:25,000
Релиз
www.kosmoaelita.com
4
00:00:36,136 --> 00:00:38,246
Я Смотрящий.
И когда-то был человеком.
5
00:00:40,307 --> 00:00:43,167
Я наблюдаю за всем происходящим.
6
00:00:45,312 --> 00:00:48,056
Пещеры Этрона-2518.
7
00:00:48,081 --> 00:00:50,158
Место археологических раскопок "33-А".
8
00:00:50,183 --> 00:00:52,327
Точка во времени:
200 лет после восстания роботов.
-------------------------------
974
01:26:02,666 --> 01:26:04,766
"Продолжение следует.
Звездный Крейсер: Апокалипсис. "
975
01:26:04,792 --> 01:26:09,056
Пока Боги пробуждаются ото сна...
люди играют в свои игры.
976
01:26:09,092 --> 01:26:13,656
Смотрите продолжение:
"Звездный корабль: Аппокалипсис"

Скриншоты










Скринлист

cd Рип дополнительно залит на mail.ru cd2
Starship Rising 2014.x264.BDRip.1080p.Rus.kosmoaelita.mkv.torrent
 СЕРЕБРЯНАЯ РАЗДАЧА! СКАЧАННОЕ ЗАСЧИТЫВАЕТСЯ ТОЛЬКО НАПОЛОВИНУ! 
Торрент: Зарегистрирован [ 2015-06-15 23:39 ]

Скачать .torrent

Скачать

54 KB

Статус: проверено
Скачан: 2 раз
Размер: 5,32 GB
 


Последний раз редактировалось: admin (2015-06-16 00:05), всего редактировалось 2 раз(а)
[Профиль] [ЛС]

admin ®

Пол: Мужской

Стаж: 6 лет 2 месяца

Сообщений: 4731

Откуда: Україна

Создавать темы 15-Июн-2015 23:46 (спустя 7 минут)

[Цитировать]

На блюрике увидела свет совершенно перемонтированная версия, отличная от DVD версии.
Начало фильма было изменено, изменив тем самым сам смысл. Некоторые сцены верезаны, некоторые добавлены. Перевод недостающих сцен - русские субтитры, которые вкл. принудительно.
[Профиль] [ЛС]

Гость

Пол: Не указан

Создавать темы 16-Июн-2015 19:18 (спустя 19 часов)

[Цитировать]

На последнем скрине" фаллаут" какой-то!!!
 

admin ®

Пол: Мужской

Стаж: 6 лет 2 месяца

Сообщений: 4731

Откуда: Україна

Создавать темы 03-Авг-2015 09:02 (спустя 1 месяц 16 дней)

[Цитировать]

Продолжение -
Starship Apocalypse 2015
[Профиль] [ЛС]

admin ®

Пол: Мужской

Стаж: 6 лет 2 месяца

Сообщений: 4731

Откуда: Україна

Создавать темы 16-Окт-2015 12:14 (спустя 2 месяца 13 дней)

[Цитировать]

Продолжение
http://kosmoaelita.com/viewtopic.php?t=1928
[Профиль] [ЛС]

Faer

Пол: Мужской

Стаж: 3 года 10 месяцев

Сообщений: 337

Откуда: Сербия

Создавать темы 16-Окт-2015 12:41 (спустя 27 минут)

[Цитировать]

Но ведь это сюжет из саги "Космический пират капитан Харлок"! Что в старом Харлоке, что в недавнем аниме-фильме такую-же предысторию задвигали.
P.S. Отзыв доставил.
[Профиль] [ЛС]
Показать сообщения:    
Ответить на тему

Текущее время: 14-Ноя 06:05

Часовой пояс: UTC + 3:30



Вы не можете начинать темы
Вы не можете отвечать на сообщения
Вы не можете редактировать свои сообщения
Вы не можете удалять свои сообщения
Вы не можете голосовать в опросах
Вы не можете прикреплять файлы к сообщениям
Вы можете скачивать файлы