Там что-то есть / Something Is Out There (Ричард А. Колла / Richard A. Colla) [1988, США, Австралия, Фантастика, VHSRip] (АО : Вячеслав Котов)

Ответить на тему
 
Автор Сообщение

$Shorox ®

Пол: Мужской

Стаж: 5 лет 9 месяцев

Сообщений: 1890

Создавать темы 23-Май-2015 19:59

[Цитировать]

Там что-то есть / Something Is Out There
Страна: США, Австралия
Жанр: Фантастика
Год выпуска: 1988
Продолжительность: 00:47:00
Перевод: Авторский (одноголосый) Вячеслав Котов по заказу kosmoaelita.com
Режиссер: Ричард А. Колла / Richard A. Colla
В ролях: Джозеф Кортезе, Мэриам д’Або, Джордж Дзундза, Грегори Сьерра, Ким Делани, Джон Путч, Роберт Уэббер, Эрл Биллингс, Ноэль Бу-Слиман, Джек Брикер
Описание: Сериал про полицейского, его напарницу-инопланетянку и инопланетянина-преступника.
Релиз

Список серий первого сезона:
1. Gladiator - Гладиатор


Пример русского перевода

Сэмпл
Качество видео: VHSRip
Формат видео: MKV
Видео: DivX5, 640x480, 4:3, 29.970,
Аудио: Русский АО (В. Котов), AC-3, 192 Kbps, 2 channels, 48.0 KHz
Аудио 2: Английский, MP3, 128 Kbps, 2 channels, 44.1 KHz

MediaInfo

Общее
Уникальный идентификатор : 202872845680801929229503954646721794976 (0x989FE38B042D983882043208A4D693A0)
Полное имя : N:\Something Is Out There Serial 1988 Rus kosmoaelita\Something Is Out There e1x8 Gladiator.1988.DivX.VHSRip.Rus.kosmoaelita.mkv
Формат : Matroska
Версия формата : Version 4 / Version 2
Размер файла : 460 Мбайт
Продолжительность : 47 м.
Общий поток : 1366 Кбит/сек
Название фильма : Something Is Out There e1x8 Gladiator.1988.DivX.VHSRip.Rus.kosmoaelita
Дата кодирования : UTC 2015-05-23 18:29:14
Программа кодирования : mkvmerge v6.6.0 ('The Edge Of The In Between') built on Dec 1 2013 17:55:00
Библиотека кодирования : libebml v1.3.0 + libmatroska v1.4.1
DURATION : 00:47:04.673000000
NUMBER_OF_FRAMES : 108132
NUMBER_OF_BYTES : 45194762
_STATISTICS_WRITING_APP : mkvmerge v7.8.0 ('River Man') 32bit built on Mar 27 2015 16:18:02
_STATISTICS_WRITING_DATE_UTC : 2015-05-23 17:22:26
_STATISTICS_TAGS : BPS DURATION NUMBER_OF_FRAMES NUMBER_OF_BYTES
Видео
Идентификатор : 1
Формат : MPEG-4 Visual
Параметр BVOP формата : 1
Параметр QPel формата : Нет
Параметр GMC формата : Без точки перехода
Параметр матрицы формата : Default (H.263)
Режим смешивания : Сжатый битовый поток
Идентификатор кодека : V_MS/VFW/FOURCC / DX50
Идентификатор кодека/Подсказка : DivX 5
Продолжительность : 47 м.
Битрейт : 1018 Кбит/сек
Ширина : 640 пикселей
Высота : 480 пикселей
Соотношение сторон : 4:3
Режим частоты кадров : Постоянный
Частота кадров : 29,970 кадров/сек
Цветовое пространство : YUV
Субдискретизация насыщенности : 4:2:0
Битовая глубина : 8 бит
Тип развёртки : Прогрессивная
Метод сжатия : С потерями
Бит/(Пиксели*Кадры) : 0.111
Размер потока : 343 Мбайт (75%)
Заголовок : kosmoaelita
Библиотека кодирования : DivX 2310
Default : Да
Forced : Нет
Аудио #1
Идентификатор : 2
Формат : AC-3
Формат/Информация : Audio Coding 3
Расширение режима : CM (complete main)
Параметр Endianness формата : Big
Идентификатор кодека : A_AC3
Продолжительность : 47 м.
Вид битрейта : Постоянный
Битрейт : 192 Кбит/сек
Каналы : 2 канала
Расположение каналов : Front: L R
Частота : 48,0 КГц
Битовая глубина : 16 бит
Метод сжатия : С потерями
Размер потока : 64,7 Мбайт (14%)
Заголовок : Русский АО (В.Котов для kosmoaelita.com) - поддержка $Shorox
Язык : Russian
Default : Да
Forced : Нет
Аудио #2
Идентификатор : 3
Формат : MPEG Audio
Версия формата : Version 1
Профиль формата : Layer 3
Режим : Joint stereo
Расширение режима : MS Stereo
Идентификатор кодека : A_MPEG/L3
Идентификатор кодека/Подсказка : MP3
Продолжительность : 47 м.
Вид битрейта : Постоянный
Битрейт : 128 Кбит/сек
Каналы : 2 канала
Частота : 44,1 КГц
Метод сжатия : С потерями
Размер потока : 43,1 Мбайт (9%)
Язык : English
Default : Нет
Forced : Нет

Скриншот c названием фильма

Скриншоты






Последний раз редактировалось: $Shorox (2015-05-24 00:11), всего редактировалось 1 раз
[Профиль] [ЛС]

Трамвай-фильм

Пол: Мужской

Стаж: 4 года 1 месяц

Сообщений: 1298

Откуда: Россия

Создавать темы 23-Май-2015 23:24 (спустя 3 часа)

[Цитировать]

а сколько всего серий?
[Профиль] [ЛС]

admin

Пол: Мужской

Стаж: 6 лет

Сообщений: 4736

Откуда: Україна

Создавать темы 23-Май-2015 23:28 (спустя 4 минуты)

[Цитировать]

Восемь
[Профиль] [ЛС]

$Shorox ®

Пол: Мужской

Стаж: 5 лет 9 месяцев

Сообщений: 1890

Создавать темы 23-Мар-2016 10:34 (спустя 9 месяцев 30 дней)

[Цитировать]

Трамвай-фильм,
Качество видео имеющихся в сети очень плохое. Заказывать перевод нецелесообразно. Глаза при просмотре испортишь.
[Профиль] [ЛС]

croMAG

Пол: Мужской

Стаж: 3 года

Сообщений: 1933

Откуда: Прибалтика

Создавать темы 23-Мар-2016 14:07 (спустя 3 часа)

[Цитировать]

$Shorox,
А вдруг сериал интересный К тому же всего 8 серий И вообще встаньте кто нить на раздачу
[Профиль] [ЛС]

$Shorox ®

Пол: Мужской

Стаж: 5 лет 9 месяцев

Сообщений: 1890

Создавать темы 23-Мар-2016 14:47 (спустя 40 минут)

[Цитировать]

croMAG,
Есть фильм на основе него сделанный:
Нечто из другого мира / Something Is Out There (Ричард А. Колла / Richard A. Colla) [1988]
Я в нескольких местах скачивал рипы для сериала. Качество везде плохое.
Ещё один сериал из-за качества видео не стал дальше перевод заказывать:
Космический госпиталь / Пункт милосердия / Mercy Point (Трей Колэуэй / Trey Callaway) [1998-1999]
Этот два раза переводчику посылал. Первый раз по плохому рипу, потом допероводил по другому рипу:
Расследование (Сериал) / Probe (Роб Боумен / Rob Bowman) [1988]
[Профиль] [ЛС]

croMAG

Пол: Мужской

Стаж: 3 года

Сообщений: 1933

Откуда: Прибалтика

Создавать темы 23-Мар-2016 15:15 (спустя 27 минут)

[Цитировать]

$Shorox,
Скачаю
Расследование (Сериал) / Probe (Роб Боумен / Rob Bowman) [1988]
Много про него слышал
[Профиль] [ЛС]

$Shorox ®

Пол: Мужской

Стаж: 5 лет 9 месяцев

Сообщений: 1890

Создавать темы 23-Мар-2016 15:18 (спустя 2 минуты)

[Цитировать]

croMAG,
admin вечером на раздачу Расследование (Сериал) / Probe (Роб Боумен / Rob Bowman) [1988] встанет. С него скачаешь за полчаса.
С меня два дня будешь тянуть.
[Профиль] [ЛС]

croMAG

Пол: Мужской

Стаж: 3 года

Сообщений: 1933

Откуда: Прибалтика

Создавать темы 23-Мар-2016 15:22 (спустя 4 минуты)

[Цитировать]

Ммм два дня и масса приключений
[Профиль] [ЛС]

croMAG

Пол: Мужской

Стаж: 3 года

Сообщений: 1933

Откуда: Прибалтика

Создавать темы 25-Мар-2016 17:37 (спустя 2 дня 2 часа)

[Цитировать]

Не стоит тратить деньги на него
[Профиль] [ЛС]
Показать сообщения:    
Ответить на тему

Текущее время: 21-Сен 21:17

Часовой пояс: UTC + 3:30



Вы не можете начинать темы
Вы не можете отвечать на сообщения
Вы не можете редактировать свои сообщения
Вы не можете удалять свои сообщения
Вы не можете голосовать в опросах
Вы не можете прикреплять файлы к сообщениям
Вы не можете скачивать файлы