Миссия / A feladat / The Task (Gábor Várkonyi) [1975, Венгрия, Фантастика. телеспектакль, DVDRip-AVC] [Минисериал] (ЛО : Анатолий Гусев)

Reply to topic
 
Author Message

admin ®

Gender: Male

Longevity: 7 years 10 months

Posts: 4799

Post 23-May-2015 13:58

[Quote]

Миссия / A feladat / The Task (Минисериал)
Страна: Венгрия, Hungarian Television
Жанр: Фантастика. телеспектакль
Год выпуска: 1975
Продолжительность: 01:11:38 + 01:03:47 + 0!:09:19
Перевод: ЛО _ Анатолий Гусев
Режиссер: Gábor Várkonyi
В ролях:
Ádám Rajhona ... Gill
Tamás Fodor ... Umu / ...
András Szigeti ... Tiak / ...
Rest of cast listed alphabetically:
Margit Földessy ... Nea
Péter Györgyfalvay ... Evi
Tibor Kenderesi ... Arro (as Kenderessy Tibor)
Jenõ Kiss ... Eddie
Bori Kállai ... Die (as Kállay Bori)
Zoltán Nagy ... Ope
Ferenc Paláncz ... Norman
Zoltán Papp ... Haim / ...
István Perlaky ... Eor / ...
Miklós Tolnay ... Mat / ...
Tibor Tánczos ... Öreg
Tibor Varga ... Re / ...
Описание: Венгерский фантастический мини-сериал по роману Петера Жолдоша "Сверхзадача".
Земной исследовательский корабль «Галатея» терпит аварию на далёкой чужой планете, населённой первобытными людьми. Гибнет почти весь экипаж. Джилл, умирая от лучевой болезни, понимает: перед ним — тяжелейшая задача. Необходимо любой ценой вернуть «Галатею» домой. Но кто поведёт корабль, если Джилл — последний из землян на нём, и жить ему осталось совсем немного? Задача решаема. если скопировать личности членов экипажа в компьютер и наделить ими аборигенов...
cd ЧИТАТЬ КНИГУ ОН-ЛАЙН cd2 cd ЧИТАТЬ КНИГУ ОН-ЛАЙН cd2Качество: DVDRip-AVC
Формат: MKV
Видео: XviD, ~1200 кбит/с, 640x528@704x528, 25 к/с
Аудио 1: Русский ЛО (А.Гусев)(AC3, 2 ch, 192 Кбит/с)
Субтитры: Английские. венгерские
Работа над релизом:
Рипы найдены на синемагеддоне.
За русскую дорожку спасибо innominate

[kp][/kp]

Пример русской озвучки

Дополнительно

================================================
Для Украины: рип и оригинальный ДВД дополнительно залиты в файлохранилище
Для удаления,добавления и извлечения дорожек в mkv используйте бесплатную портативную mkvmerge GUI 7.1.0
Для присоединения потом дорожек к avi воспользуйтесь VirtualDubMod

Знаете ли вы, что...

Отзывы

MediaInfo

Общее
Уникальный идентификатор : 200732107653284547909983845043764412509 (0x97039902679834F89194D489FD8F405D)
Полное имя : N:\A feladat 1975\A feladat e1x3 1975.Xvid.Rus.mkv
Формат : Matroska
Версия формата : Version 4 / Version 2
Размер файла : 792 Мбайт
Продолжительность : 1 ч. 11 м.
Режим общего битрейта : Переменный
Общий поток : 1545 Кбит/сек
Название фильма : Миссия / A feladat / The Task / e1x5 / 1975
Дата кодирования : UTC 2015-05-19 22:48:28
Программа кодирования : mkvmerge v6.6.0 ('The Edge Of The In Between') built on Dec 1 2013 17:55:00
Библиотека кодирования : libebml v1.3.0 + libmatroska v1.4.1
Attachements : orig.jpg
Видео
Идентификатор : 1
Формат : MPEG-4 Visual
Профиль формата : Advanced Simple@L5
Параметр BVOP формата : 2
Параметр QPel формата : Нет
Параметр GMC формата : Без точки перехода
Параметр матрицы формата : Default (H.263)
Режим смешивания : Сжатый битовый поток
Идентификатор кодека : V_MS/VFW/FOURCC / XVID
Идентификатор кодека/Подсказка : XviD
Продолжительность : 1 ч. 11 м.
Битрейт : 1140 Кбит/сек
Ширина : 640 пикселей
Высота : 528 пикселей
Соотношение сторон : 4:3
Соотношение сторон в оригинале : 1,212
Режим частоты кадров : Постоянный
Частота кадров : 25,000 кадров/сек
Цветовое пространство : YUV
Субдискретизация насыщенности : 4:2:0
Битовая глубина : 8 бит
Тип развёртки : Прогрессивная
Метод сжатия : С потерями
Бит/(Пиксели*Кадры) : 0.135
Размер потока : 584 Мбайт (74%)
Библиотека кодирования : XviD 1.0.3 (UTC 2004-12-20)
Default : Да
Forced : Нет
Аудио #1
Идентификатор : 2
Формат : AC-3
Формат/Информация : Audio Coding 3
Расширение режима : CM (complete main)
Параметр Endianness формата : Big
Идентификатор кодека : A_AC3
Продолжительность : 1 ч. 11 м.
Вид битрейта : Постоянный
Битрейт : 192 Кбит/сек
Каналы : 2 канала
Расположение каналов : Front: L R
Частота : 48,0 КГц
Битовая глубина : 16 бит
Метод сжатия : С потерями
Размер потока : 98,4 Мбайт (12%)
Заголовок : Русский ЛО (Анатолий Гусев)
Язык : Russian
Default : Да
Forced : Нет
Аудио #2
Идентификатор : 3
Формат : MPEG Audio
Версия формата : Version 1
Профиль формата : Layer 3
Режим : Joint stereo
Идентификатор кодека : A_MPEG/L3
Идентификатор кодека/Подсказка : MP3
Продолжительность : 1 ч. 11 м.
Вид битрейта : Переменный
Битрейт : 183 Кбит/сек
Каналы : 2 канала
Частота : 48,0 КГц
Метод сжатия : С потерями
Задержка видео : 120 мс.
Размер потока : 93,6 Мбайт (12%)
Библиотека кодирования : LAME3.90.
Настройки программы : -m j -V 2 -q 2 -lowpass 19 --vbr-old
Язык : Hungarian
Default : Нет
Forced : Нет

Скриншоты



















Скринлист

cd Рип дополнительно залит на mail.ru cd2


Last edited by admin on 2016-03-07 01:17; edited 8 times in total
[Profile] [PM]

admin ®

Gender: Male

Longevity: 7 years 10 months

Posts: 4799

Post 23-May-2015 14:00 (after 1 minute)

[Quote]

На видеодемонах почему-то віложили пережатую версию рипа
http://screenshotcomparison.com/comparison/128334
[Profile] [PM]

$Shorox

Gender: Male

Longevity: 7 years 6 months

Posts: 1887

Post 23-May-2015 14:37 (after 36 minutes)

[Quote]

admin,
Сериал понравился. Только очень народ там злой.
[Profile] [PM]

admin ®

Gender: Male

Longevity: 7 years 10 months

Posts: 4799

Post 23-May-2015 14:56 (after 19 minutes)

[Quote]

Это не народ, а венгерский писатель почти садист смайлик+
http://fantlab.ru/autor6367
[Profile] [PM]

$Shorox

Gender: Male

Longevity: 7 years 6 months

Posts: 1887

Post 23-May-2015 16:05 (after 1 hour 8 minutes)

[Quote]

admin,
Я не правильно выразился.
[Profile] [PM]
Display posts:    
Reply to topic

Current time is: 13-Jul 21:21

All times are UTC + 3



You cannot post new topics in this forum
You cannot reply to topics in this forum
You cannot edit your posts in this forum
You cannot delete your posts in this forum
You cannot vote in polls in this forum
You cannot attach files in this forum
You cannot download files in this forum