Электрическая бабушка (ТВ) / The Electric Grandmother (Noel Black / Ноэль Блэк) [1982, США, фантастика, семейный, VHSRip] ПО

Reply to topic
DL-List and Torrent activity
Size:  688 MB   |    Registered:  5 years   |    Completed:  0 times

Seeder not seen: 1 year

 
   
 
 
 
Author Message

admin ®

Gender: Male

Longevity: 7 years 9 months

Posts: 4799

Post 08-May-2015 09:37

[Quote]

Электрическая бабушка / The Electric Grandmother
Страна: США, Highgate Pictures
Жанр: фантастика, семейный
Год выпуска: 1982
Продолжительность: 00:47:34
Перевод: Профессиональный (одноголосый)
Режиссер: Noel Black / Ноэль Блэк
В ролях:
Maureen Stapleton ... Grandmother
Edward Herrmann ... Father
Paul Benedict ... Guido Fantoccini
Tara Kennedy ... Agatha
Robert MacNaughton ... Tom
Charles Fields ... Timothy (as Charlie Fields)
Madeleine Sherwood ... Aunt Clara (as Madeleine Thornton-Sherwood)
Truman Gaige ... Old Tom / Narrator
Richard Whiting ... Old Timothy
Dortha Duckworth ... Grandma Neighbor
Paula Trueman ... Old Agatha
Описание: Телеэкранизация рассказа Рэя Брэдбери /Ray Bradbury "Электрическое тело пою!" (I Sing the Body Electric, 1969).
После смерти матери семье, в которой растут трое детей, помощь приходит странным и причудливым образом. Как-то пролетающий над ними вертолет сбрасывает три странных предмета. На предметах написаны имена детей – Агата, Том и Тимоти. Когда эти предметы объединяют, то поступает специальный запрос на специальную фабрику по производству электрических бабушек. Семья выезжает на эту странную фабрику, и через некоторое время получают посылку в виде саркофага с электрической бабушкой внутри.В оснащении андроида есть все необходимое, чтобы полнофункционально заменить родителей…

Качество: VHSRip
Формат: MKV
Видео: x264, 1407 кбит/с, 696x472, 29.97 к/с
Аудио 1: Русский ПО (AC3, 2 ch, 192 Кбит/с)
Аудио 2: Английский (AC3, 2 ch, 384 Кбит/с)
Работа над релизом:
Видеоряд найден на синемагеддоне.
Синхр. русской дорожки - kosmoaelita



Пример русской озвучки

Дополнительно

Формат изображения: 1.33 : 1
Формат копии: 35 mm
Формат съёмок: 35 mm
Изображение: цветное
Язык: английский
================================================
Для Украины: рип и оригинальный ДВД дополнительно залиты в файлохранилище
Для удаления,добавления и извлечения дорожек в mkv используйте бесплатную портативную mkvmerge GUI 7.1.0
Для присоединения потом дорожек к avi воспользуйтесь VirtualDubMod

Знаете ли вы, что...

Телеэкранизация рассказа Рэя Брэдбери /Ray Bradbury "Электрическое тело пою!" (I Sing the Body Electric, 1969).

Отзывы

MediaInfo

Общее
Уникальный идентификатор : 215471487733492818824736937033931075397 (0xA21A4C8DCDDEC754A6162A638A6AAF45)
Полное имя : N:\The Electric Grandmother 1982.VHSRip.Rus.mkv
Формат : Matroska
Версия формата : Version 4 / Version 2
Размер файла : 688 Мбайт
Продолжительность : 47 м.
Общий поток : 2023 Кбит/сек
Название фильма : The Electric Grandmother / 1982
Дата кодирования : UTC 2015-05-08 06:23:44
Программа кодирования : mkvmerge v6.6.0 ('The Edge Of The In Between') built on Dec 1 2013 17:55:00
Библиотека кодирования : libebml v1.3.0 + libmatroska v1.4.1
Видео
Идентификатор : 1
Формат : AVC
Формат/Информация : Advanced Video Codec
Профиль формата : High@L3.0
Параметр CABAC формата : Да
Параметр ReFrames формата : 6 кадров
Идентификатор кодека : V_MPEG4/ISO/AVC
Битрейт : 1407 Кбит/сек
Ширина : 696 пикселей
Высота : 472 пикселя
Соотношение сторон : 4:3
Режим частоты кадров : Переменный
Цветовое пространство : YUV
Субдискретизация насыщенности : 4:2:0
Битовая глубина : 8 бит
Тип развёртки : Прогрессивная
Заголовок : kosmoaelita
Библиотека кодирования : x264 core 130 r2273 b3065e6
Настройки программы : cabac=1 / ref=6 / deblock=1:-2:-2 / analyse=0x3:0x133 / me=umh / subme=9 / psy=1 / psy_rd=1.00:0.00 / mixed_ref=1 / me_range=24 / chroma_me=1 / trellis=2 / 8x8dct=1 / cqm=0 / deadzone=21,11 / fast_pskip=0 / chroma_qp_offset=-2 / threads=1 / lookahead_threads=1 / sliced_threads=0 / nr=0 / decimate=1 / interlaced=0 / bluray_compat=0 / constrained_intra=0 / bframes=6 / b_pyramid=2 / b_adapt=2 / b_bias=0 / direct=3 / weightb=1 / open_gop=0 / weightp=2 / keyint=240 / keyint_min=24 / scenecut=40 / intra_refresh=0 / rc_lookahead=50 / rc=crf / mbtree=1 / crf=19.3 / qcomp=0.60 / qpmin=0 / qpmax=69 / qpstep=4 / ip_ratio=1.40 / aq=1:1.20
Язык : English
Default : Да
Forced : Нет
Основные цвета : BT.601 NTSC
Характеристики трансфера : BT.709
Коэффициенты матрицы : BT.601
colour_range : Limited
Аудио #1
Идентификатор : 2
Формат : AC-3
Формат/Информация : Audio Coding 3
Расширение режима : CM (complete main)
Параметр Endianness формата : Big
Идентификатор кодека : A_AC3
Продолжительность : 47 м.
Вид битрейта : Постоянный
Битрейт : 192 Кбит/сек
Каналы : 2 канала
Расположение каналов : Front: L R
Частота : 48,0 КГц
Битовая глубина : 16 бит
Метод сжатия : С потерями
Размер потока : 65,3 Мбайт (9%)
Заголовок : Русский ПО
Язык : Russian
Default : Да
Forced : Нет
Аудио #2
Идентификатор : 3
Формат : AC-3
Формат/Информация : Audio Coding 3
Расширение режима : CM (complete main)
Параметр Endianness формата : Big
Идентификатор кодека : A_AC3
Продолжительность : 47 м.
Вид битрейта : Постоянный
Битрейт : 384 Кбит/сек
Каналы : 2 канала
Расположение каналов : Front: L R
Частота : 48,0 КГц
Битовая глубина : 16 бит
Метод сжатия : С потерями
Размер потока : 131 Мбайт (19%)
Язык : English
Default : Нет
Forced : Нет

Скриншоты







Скринлист

cd Рип дополнительно залит на mail.ru cd2
The Electric Grandmother 1982.VHSRip.Rus.mkv.torrent
Torrent: Registered [ 2015-05-08 09:37 ]

Download .torrent

Download

27 KB

Status: checked
Completed: 0 times
Size: 688 MB
 


Last edited by admin on 2015-05-08 09:45; edited 2 times in total
[Profile] [PM]

admin ®

Gender: Male

Longevity: 7 years 9 months

Posts: 4799

Post 08-May-2015 09:38 (after 1 minute)

[Quote]

Заменен битый видеоряд.
Примерно одна минута без перевода (00:07:15-00:08:15)
[Profile] [PM]
Display posts:    
Reply to topic

Current time is: 07-Jun 01:54

All times are UTC + 3



You cannot post new topics in this forum
You cannot reply to topics in this forum
You cannot edit your posts in this forum
You cannot delete your posts in this forum
You cannot vote in polls in this forum
You cannot attach files in this forum
You can download files in this forum