Логово Дракона / Dragon's Lair (Ч.А. Николс) [1984, США, фентази, DVDRip] (АО : Трамвай-фильм)

Ответить на тему
Статистика раздачи
Размер:  2,68 GB   |    Зарегистрирован:  3 года 7 месяцев   |    Скачан:  14 раз

Сидов:

Пользователь ULR Отдано Скачано Отдача Загрузка
evilbuch 0,3 988102201942 MB 0- 0- 0-
показаны данные только за текущую сессию
 
   
 
 
 
Автор Сообщение

Трамвай-фильм ®

Пол: Мужской

Стаж: 4 года 4 месяца

Сообщений: 1346

Откуда: Россия

Создавать темы 03-Май-2015 19:28

[Цитировать]

Логово Дракона / Dragon's Lair
Страна: США
Жанр: фентази
Год выпуска: 1984
Продолжительность: 00:20:50
Перевод: Авторский (одноголосый) _ Трамвай-фильм
Режиссер: Ч.А. Николс
Описание: Бравый рыцарь сэр Дирк Бесстрашный спасает короля Этелреда и его подданных от всяких негодяев, главным из которых выступает дракон Синж
Доп. информация:
1. Мультфильм снят по одноименной популярной интерактивной игре
2. В мультфильме сохранилась аналогичная "интеракивность", когда герой оказывается на распутье, зрителю предлагается самому сделать выбор, после чего показываются вероятные последствия
3. Название Dragon's Lair является омонимом английской фразы Dragon slayer (убийца дракона)
Качество видео: DVDRip
Формат видео: AVI
Видео: Хvid, 720x480, 29.97fps, 1 239 Kbps
Аудио: MP3, 44100Hz, stereo, 128 Кbps
Пример русской озвучки:

MediaInfo

Format : AVI
Format/Info : Audio Video Interleave
File size : 207 MiB
Duration : 20mn 51s
Overall bit rate : 1 385 Kbps
Video
ID : 0
Format : MPEG-4 Visual
Format profile : Simple@L3
Format settings, BVOP : No
Format settings, QPel : No
Format settings, GMC : No warppoints
Format settings, Matrix : Default (H.263)
Codec ID : XVID
Codec ID/Hint : XviD
Duration : 20mn 51s
Bit rate : 1 239 Kbps
Width : 720 pixels
Height : 480 pixels
Display aspect ratio : 3:2
Frame rate : 29.970 fps
Original frame rate : 29.000 fps
Standard : NTSC
Color space : YUV
Chroma subsampling : 4:2:0
Bit depth : 8 bits
Scan type : Progressive
Compression mode : Lossy
Bits/(Pixel*Frame) : 0.120
Stream size : 185 MiB (89%)
Writing library : XviD 1.2.1 (UTC 2008-12-04)
Audio
ID : 1
Format : MPEG Audio
Format version : Version 1
Format profile : Layer 3
Mode : Joint stereo
Mode extension : MS Stereo
Codec ID : 55
Codec ID/Hint : MP3
Duration : 20mn 51s
Bit rate mode : Constant
Bit rate : 128 Kbps
Channel(s) : 2 channels
Sampling rate : 44.1 KHz
Compression mode : Lossy
Stream size : 19.1 MiB (9%)
Alignment : Aligned on interleaves
Interleave, duration : 26 ms (0.78 video frame)
Writing library : LAME3.98.2

Скриншоты




cd Рип дополнительно залит на mail.ru cd2
Dragon's.Lair.TV.1984.torrent
Торрент: Зарегистрирован [ 2015-05-03 19:28 ]

Скачать .torrent

Скачать

15 KB

Статус: проверено
Скачан: 14 раз
Размер: 2,68 GB
 
[Профиль] [ЛС]

admin

Пол: Мужской

Стаж: 6 лет 3 месяца

Сообщений: 4730

Откуда: Україна

Создавать темы 03-Май-2015 22:39 (спустя 3 часа)

[Цитировать]

Сетевой торрент
[Профиль] [ЛС]

Трамвай-фильм ®

Пол: Мужской

Стаж: 4 года 4 месяца

Сообщений: 1346

Откуда: Россия

Создавать темы 03-Май-2015 23:37 (спустя 57 минут)

[Цитировать]

10555Сетевой торрент
да, причем с обменом.
[Профиль] [ЛС]
Показать сообщения:    
Ответить на тему

Текущее время: 16-Дек 09:21

Часовой пояс: UTC + 3:30



Вы не можете начинать темы
Вы не можете отвечать на сообщения
Вы не можете редактировать свои сообщения
Вы не можете удалять свои сообщения
Вы не можете голосовать в опросах
Вы не можете прикреплять файлы к сообщениям
Вы можете скачивать файлы