Космические пути / Spaceways (Теренс Фишер / Terence Fisher) [1953 г., фантастика, мелодрама, детектив, DVDRip] ЛО (ROLLINGHEAD), СТ (VampirO`N`MarfenaRus)

Reply to topic
 
Author Message

Guest ®

Gender: Unknown

Post 21-Sep-2012 10:28

[Quote]

Космические пути / Spaceways
Год выпуска: 1953
Страна: Великобритания
Жанр: фантастика, мелодрама, детектив
Продолжительность: 01:16:19
Перевод: Профессиональный (одноголосый) ROLLINGHEAD
Субтитры: VampirO`N`MarfenaRus
Режиссер: Теренс Фишер / Terence Fisher
В ролях: Ховард Дафф, Эва Барток, Алан Уитли, Филип Ливер, Майкл Медуин, Эндрю Осборн, Сесиль Шевро, Энтони Айрлэнд, Хью Мокси, Дэвид Хорн
Описание: Первая научная фантастика, снятая британской компанией "Hammer Films".
Действие фильма происходит в годы холодной войны, заполненного интригой и обманом. Британского ученого, занятого проектом по созданию ракеты, обвиняют в зверском убийстве своей жены и её любовника, советского шпиона. Его обвинители полагают, что он убил их, а их останки отправил в космос на испытуемой ракете. Для доказательства своей невиновности ученый решается сам отправиться в космос и доказать свою невиновность
.
Качество: DVDRip
Формат: MKV
Видео: x264, 2335 Кбит/с, 720x540, 23.976fps, crf=21
Аудио 1: Русский ЛО ROLLINGHEAD (AC3, 2 ch, 192 Кбит/с)
Аудио 2: Английский (AC3, 2 ch, 192 Кбит/с)
Субтитры : Русские (VampirO`N`MarfenaRus)
Работа над релизом:
Рип с NTSC DVD5 - kosmoaelita



Трейлер

Релиз

Для Украины: рип и оригинальный ДВД дополнительно залиты в файлохранилище
Для удаления и добавления дорожек в mkv используйте бесплатную mkvmerge GUI 5.80

Дополнительно

слоган «The screen's first story of SPACE ISLANDS in the sky!»
Also Known As (AKA)
Viagem Espacial Portugal
Viaggio nell'interspazio Italy

Отзывы

Интересный с жанровой точки зрения фильм, находящийся на стыке политического детектива начала холодной войны и мелодрамы с немного утрированными элементами фантастики - есть ли какие-нибудь ещё подобные фильмы европейского кинематографа конца 50х и 60х годов? Спасибо за release.
---------------------------------------------------------
Действительно, отменный фильм.
Прошу обратить внимание, что стартуют трофейные Фау-2.
-----------------------------------------------------------
Неожиданная, но интересная смесь жанров в духе лучших отечественных кинолент: самоотверженный учёный, его верная спутница и обязательный в таких случаях "плохиш". Хорошее кино, которое сейчас интересно смотреть именно по причине его невероятной наивности.

MediaInfo

Общее
Уникальный идентификатор : 240152880033832058228096845351379046100 (0xB4ABC3255BD6F8B382CBB57C2C688ED4)
Полное имя : E:\0000\000 DEMUX\Новая папка (33)\Spaceways 1953.B.W.x264.DVDRip.Rus.kosmoaelita.mkv
Формат : Matroska
Версия формата : Version 4 / Version 2
Размер файла : 1,45 Гбайт
Продолжительность : 1 ч. 16 м.
Общий поток : 2721 Кбит/сек
Название фильма : Космические пути Spaceways 1953.B.W /
Дата кодирования : UTC 2015-05-18 06:58:19
Программа кодирования : mkvmerge v6.6.0 ('The Edge Of The In Between') built on Dec 1 2013 17:55:00
Библиотека кодирования : libebml v1.3.0 + libmatroska v1.4.1
Attachements : Spaceways 1953.B.W.XviD.DVDRip.mkv.encoding.log
DURATION : 01:16:19.584000000
NUMBER_OF_FRAMES : 143112
NUMBER_OF_BYTES : 109910016
_STATISTICS_WRITING_APP : mkvmerge v7.3.0 ('Nouages') 32bit built on Oct 22 2014 18:44:01
_STATISTICS_WRITING_DATE_UTC : 2015-05-18 02:01:52
_STATISTICS_TAGS : BPS DURATION NUMBER_OF_FRAMES NUMBER_OF_BYTES
Видео
Идентификатор : 1
Формат : AVC
Формат/Информация : Advanced Video Codec
Профиль формата : High@L4.1
Параметр CABAC формата : Да
Параметр ReFrames формата : 8 кадров
Идентификатор кодека : V_MPEG4/ISO/AVC
Продолжительность : 1 ч. 16 м.
Битрейт : 2335 Кбит/сек
Ширина : 720 пикселей
Высота : 540 пикселей
Соотношение сторон : 4:3
Режим частоты кадров : Постоянный
Частота кадров : 23,976 кадра/сек
Цветовое пространство : YUV
Субдискретизация насыщенности : 4:2:0
Битовая глубина : 8 бит
Тип развёртки : Прогрессивная
Бит/(Пиксели*Кадры) : 0.250
Размер потока : 1,22 Гбайт (84%)
Заголовок : kosmoaelita
Библиотека кодирования : x264 core 130 r2273 b3065e6
Настройки программы : cabac=1 / ref=8 / deblock=1:-2:-2 / analyse=0x3:0x133 / me=umh / subme=11 / psy=1 / psy_rd=1.00:0.15 / mixed_ref=1 / me_range=24 / chroma_me=1 / trellis=2 / 8x8dct=1 / cqm=0 / deadzone=21,11 / fast_pskip=0 / chroma_qp_offset=-3 / threads=6 / lookahead_threads=1 / sliced_threads=0 / nr=0 / decimate=1 / interlaced=0 / bluray_compat=0 / constrained_intra=0 / bframes=8 / b_pyramid=2 / b_adapt=2 / b_bias=0 / direct=3 / weightb=1 / open_gop=0 / weightp=2 / keyint=210 / keyint_min=21 / scenecut=40 / intra_refresh=0 / rc_lookahead=80 / rc=2pass / mbtree=1 / bitrate=2335 / ratetol=1.0 / qcomp=0.65 / qpmin=0 / qpmax=69 / qpstep=4 / cplxblur=20.0 / qblur=0.5 / ip_ratio=1.40 / aq=1:0.90
Default : Да
Forced : Нет
Основные цвета : BT.601 PAL
Характеристики трансфера : BT.470 System B, BT.470 System G
Коэффициенты матрицы : BT.601
colour_range : Limited
Аудио #1
Идентификатор : 2
Формат : AC-3
Формат/Информация : Audio Coding 3
Расширение режима : CM (complete main)
Параметр Endianness формата : Big
Идентификатор кодека : A_AC3
Продолжительность : 1 ч. 16 м.
Вид битрейта : Постоянный
Битрейт : 192 Кбит/сек
Каналы : 2 канала
Расположение каналов : Front: L R
Частота : 48,0 КГц
Битовая глубина : 16 бит
Метод сжатия : С потерями
Размер потока : 105 Мбайт (7%)
Заголовок : Русский ЛО (ROLLINGHEAD)
Язык : Russian
Default : Да
Forced : Нет
Аудио #2
Идентификатор : 3
Формат : AC-3
Формат/Информация : Audio Coding 3
Расширение режима : CM (complete main)
Параметр Endianness формата : Big
Идентификатор кодека : A_AC3
Продолжительность : 1 ч. 16 м.
Вид битрейта : Постоянный
Битрейт : 192 Кбит/сек
Каналы : 1 канал
Расположение каналов : Front: C
Частота : 48,0 КГц
Битовая глубина : 16 бит
Метод сжатия : С потерями
Размер потока : 105 Мбайт (7%)
Язык : English
Default : Нет
Forced : Нет
Текст
Идентификатор : 4
Формат : UTF-8
Идентификатор кодека : S_TEXT/UTF8
Идентификатор кодека/Информация : UTF-8 Plain Text
Заголовок : Русский (VampirO`N`MarfenaRus)
Язык : Russian
Default : Да
Forced : Нет
Меню
00:08:20.834 : en:00:08:20.834
00:13:49.395 : en:00:13:49.395
00:19:43.382 : en:00:19:43.382
00:21:23.950 : en:00:21:23.950
00:29:15.154 : en:00:29:15.154
00:33:45.924 : en:00:33:45.924
00:40:26.591 : en:00:40:26.591
00:46:36.761 : en:00:46:36.761
00:50:45.242 : en:00:50:45.242
00:56:17.574 : en:00:56:17.574
01:02:52.836 : en:01:02:52.836
01:06:55.712 : en:01:06:55.712
01:13:14.657 : en:01:13:14.657
01:15:27.390 : en:01:15:27.390
01:16:17.473 : en:01:16:17.473

Пример субтитров

2
00:00:13,500 --> 00:00:16,800
" КОСМИЧЕСКИЕ ПУТИ "
3
00:02:27,602 --> 00:02:31,107
- Вы сегодня что-то рано вернулись, доктор Митчелл.
- На этот раз её было легко найти.
4
00:02:32,977 --> 00:02:35,605
- Думаете, что здесь скрывается блондинка?
- Простите.
5
00:02:42,314 --> 00:02:44,527
- Я тоже здесь блондин.
- Я знаю.
6
00:02:47,209 --> 00:02:48,269
Пропустить!
7
00:03:23,097 --> 00:03:26,536
Это с ракеты, очень важная деталь.
Она кажется целая...,
8
00:03:27,383 --> 00:03:28,437
эта киноплёнка.
- Спасибо.
9
00:03:28,671 --> 00:03:29,845
Мы можем идти?
10
00:03:30,935 --> 00:03:34,312
Бедная Минни сделала какую-то
запись для науки.
11
00:03:37,136 --> 00:03:39,572
Я это не узнаю до тех пор,
пока не вскроем её.
12
00:03:40,454 --> 00:03:42,759
Но конечно, она погибла от жары.
13
00:03:42,981 --> 00:03:45,437
Температура была почти 400 градусов.
14
00:03:46,927 --> 00:03:49,998
Минни была всегда слабачкой.
15
00:03:51,433 --> 00:03:56,619
Как всё-же чувствительны женщины. Им не хорошо,
когда слишком много или слишком мало.
16
00:03:57,800 --> 00:04:00,341
Ты диагностируешь мышей или людей?
17
00:04:00,675 --> 00:04:02,871
Своих мышей, конечно.
18
00:04:03,253 --> 00:04:07,374
Они умны. Благодаря им,
мы узнаём много нового о людях.
19
00:04:07,741 --> 00:04:09,672
Жалость, которая не рассеится в твоих руках.
20
00:04:11,126 --> 00:04:12,060
Возьми, Стив.
21
00:04:12,273 --> 00:04:13,076
Спасибо.
22
00:04:37,794 --> 00:04:38,627
Черт!
23
00:04:39,958 --> 00:04:41,229
Что-то разбилось, Тоби?
24
00:04:41,317 --> 00:04:44,576
Нет, но ртутный манометр протекает.
Теперь Я не буду уверен в степени..

Скриншоты











Скринлист

cd Рип дополнительно залит на mail.ru cd2
 

admin

Gender: Male

Longevity: 7 years

Posts: 4725

Location: Україна

Post 18-May-2015 10:08 (after 2 years 7 months)

[Quote]

Перезалито с лучшим качеством видеоряда
[Profile] [PM]
Quick Reply

Name:

            
Heads necessary to send messages to enable JavaScript
Display posts:    
Reply to topic

Current time is: 21-Sep 01:43

All times are UTC + 3



You cannot post new topics in this forum
You can reply to topics in this forum
You cannot edit your posts in this forum
You cannot delete your posts in this forum
You cannot vote in polls in this forum
You cannot attach files in this forum
You cannot download files in this forum