Лист Мебиуса (Леонид Партигул) [1988, СССР, Фантастика, VHSRip]

Reply to topic
DL-List and Torrent activity
Size:  695 MB   |    Registered:  4 years 11 months   |    Completed:  3 times

Seeder not seen: 11 months 14 days

 
   
 
 
 
Author Message

$Shorox ®

Gender: Male

Longevity: 7 years 3 months

Posts: 1888

Post 14-Apr-2015 17:59

[Quote]

Лист Мебиуса / Лист Мёбиуса
Страна: СССР
Производство: Свердловская киностудия
Жанр: Фантастика
Год выпуска: 1988
Продолжительность: 00:19:35
Перевод: Не требуется
Режиссер: Леонид Партигул
В ролях: А. Понамарёв, Б. Бреславский, В. Сальников, А. Молчанова
Описание: Экранизация одноименного рассказа А. Дж. Дейча.
Фильм в популярной форме знакомит зрителей с современными проблемами топологии: рассказ о поезде метро, который уехал в "четвертое измерение".
Есть ещё два фильма по этому рассказу:
Мёбиус / Möbius (Матти Гешоннек / Matti Geschonneck) [1993]
Мебиус / Moebius (Густаво Москера Р. / Gustavo Mosquera R.) [1996]
Сам рассказ можно скачать здесь: Журнал Наука и жизнь [1890-2013] - Наука и жизнь 1969 №12
Релиз


kino-teatr.ru
Сэмпл
Качество видео: VHSRip
Формат видео: vob
Видео: MPEG, 720x576, 4:3,25.000 fps, 4 610 Kbps
Аудио: AC-3, 256 Kbps, 2 channels, 48.0 KHz

MediaInfo

General
Complete name : F:\~ Сбор\~ Фильмы\Лист Мебиуса (Леонид Партигул) [1998]\List Mebiusa.vob
Format : MPEG-PS
File size : 695 MiB
Duration : 19mn 35s
Overall bit rate mode : Variable
Overall bit rate : 4 965 Kbps
Video
ID : 224 (0xE0)
Format : MPEG Video
Format version : Version 2
Format profile : Main@Main
Format settings, BVOP : No
Format settings, Matrix : Custom
Format settings, GOP : Variable
Duration : 19mn 35s
Bit rate mode : Variable
Bit rate : 4 610 Kbps
Maximum bit rate : 9 400 Kbps
Width : 720 pixels
Height : 576 pixels
Display aspect ratio : 4:3
Frame rate : 25.000 fps
Standard : PAL
Color space : YUV
Chroma subsampling : 4:2:0
Bit depth : 8 bits
Scan type : Interlaced
Scan order : Top Field First
Compression mode : Lossy
Bits/(Pixel*Frame) : 0.445
Time code of first frame : 00:00:07:05
Time code source : Group of pictures header
Stream size : 646 MiB (93%)
Color primaries : BT.601 PAL
Transfer characteristics : BT.470 System B, BT.470 System G
Matrix coefficients : BT.601
Audio
ID : 189 (0xBD)-128 (0x80)
Format : AC-3
Format/Info : Audio Coding 3
Mode extension : CM (complete main)
Format settings, Endianness : Big
Muxing mode : DVD-Video
Duration : 19mn 34s
Bit rate mode : Constant
Bit rate : 256 Kbps
Channel(s) : 2 channels
Channel positions : Front: L R
Sampling rate : 48.0 KHz
Bit depth : 16 bits
Compression mode : Lossy
Delay relative to video : -192ms
Stream size : 35.9 MiB (5%)
Menu

Скриншот c названием фильма

Скриншоты




cd Рип дополнительно залит на mail.ru cd2
Лист Мебиуса (Леонид Партигул) [1998] kosmoaelita.torrent
Torrent: Registered [ 2015-04-14 18:29 ]

Download .torrent

Download

14 KB

Status: checked
Completed: 3 times
Size: 695 MB
 
[Profile] [PM]
Display posts:    
Reply to topic

Current time is: 04-Apr 08:09

All times are UTC + 3



You cannot post new topics in this forum
You cannot reply to topics in this forum
You cannot edit your posts in this forum
You cannot delete your posts in this forum
You cannot vote in polls in this forum
You cannot attach files in this forum
You can download files in this forum