Стонадос / Stonados (Jason Bourque / Джейсон Бурк) [2013, США, Канада, фантастика, BDRip-1080p] ПМ (SD Media для SyFy)

Reply to topic
 
Author Message

admin ®

Gender: Male

Longevity: 6 years 7 months

Posts: 4727

Location: Україна

Post 06-Apr-2015 00:09

[Quote]

Стонадос / Stonados
Страна: США, Канада, Two 4 The Money Media
Жанр: фантастика
Год выпуска: 2013
Продолжительность: 01:28:06
Перевод: Профессиональный (многоголосый) _ SD Media для SyFy
Режиссер: Jason Bourque / Джейсон Бурк
В ролях:
Paul Johansson ... Joe Randall
Sebastian Spence ... Lee Calrton
Miranda Frigon ... Maddy
Jessica McLeod ... Megan
Dylan Schmid ... Jackson
William B. Davis ... Ben
Grace Vukovic ... Julie
Ben Witmer ... Jake
Thea Gill ... Tara Laykin
Aliyah O'Brien ... Alicia - FOA Assistant
Josh Byer ... Stan
David Pearson ... Tourist (as David Allan Pearson)
Dominika Juillet ... Vanessa
Dalias Blake ... Defendor 1
Hugo Steele ... Player 1
Описание: Когда к югу от Бостона появляется торнадо, бывший преследователь ураганов Джо (Пол Йоханссон) Рэндалл крайне заинтригован необычной погодой. Этот герой фильма «Стонадос» (Stonados) быстро понимает, что это не обычный грозовой фронт. В то время как буря грозит переместиться внутрь страны, жители Бостона оказываются в смертельно опасной ловушке. Джо, его сестра Мэдди и его давний коллега по гонке за ураганами Ли, оказавшиеся в Бостоне, словно в осаде, понимают, что прежде им никогда не приходилось сталкиваться с таким необычным погодным явлением, как стонадос. Единственный шанс остановить бурю – это теория о манипуляции погодой, разработанная Джо, которую он вот уже десять лет пытается проверить на практике. Угроза страшного урагана распространяется по всему Восточному побережью, и Джо придется воспользоваться своим методом и попробовать спасти мир… или ускорить его разрушение!
Качество: BDRip-1080p
Формат: MKV
Видео: x264, 9141 кбит/с, 1920x1080, 23.976 к/с
Аудио 1: Русский ПМ (SD Media для SyFy) (AC3, 2 ch, 192 Кбит/с)
Аудио 2: Английский (DTS, 6 ch, 1510 Кбит/с)
Работа над релизом:
Видеоряд найден в юзенете.
Синхронизация русской дорожки - sasha20072007 (kosmoaelita)



Дополнительно

возраст зрителям, достигшим 12 лет
Also Known As (AKA)
Canada (French title) Tornades de pierres
Germany Stonados - Kein Entkommen
France (video title) Stone Impact
Hungary Bostoni tornádók
Poland Burzowe tornado
Poland (alternative title) Glazobomby
================================================
Для Украины: рип и оригинальный ДВД дополнительно залиты в файлохранилище
Для удаления,добавления и извлечения дорожек в mkv используйте бесплатную портативную mkvmerge GUI 7.1.0
Для присоединения потом дорожек к avi воспользуйтесь VirtualDubMod

Отзывы

хз фильм так себе норм ну вроде даже уснул на половине фильма может так как устал типа , ну фильм как бы предсказуемый на стольких моментов был прав
-------------------------------------------
Хватило на 2 минуты 45 сек. Со мной такое впервые, настолько всё плохо. По ТВ3 крутят шедевры по сравнению с этим высером.
----------------------------------------
Дешёвка редкая!
Но действующая модель вулкана меня заинтересовала...

Рецензия

Неконтролируемый камнепад
Как режиссёр и как сценарист Джейсон Бурк снял не менее десятка фильмов, в которых речь идёт о небывалых атмосферных катаклизмах: «Чёрная буря» (2006), «Буря в Арктике» (2010), «Железный смерч» (2011), «Спершторм» (2012) и др. Последний в этом ряду — «Стонадос» ("Stonados»), который можно перевести как «Каменный смерч». Сценарий к нему написал тоже большой знаток «разнонаправленной» фантастики Рафаэль Джордан: «Йети» (2008), «Бегущие к звёздам» (2009), «Арктический хищник» (2010), «Драконовы осы» (2012) и др.
Кино снималось исключительно под формат SyFy, поэтому особого драматизма и глубины ожидать не стоит, но при этом, и Джейсон Бурк и Рафаэль Джордан к своей работе подошли ответственно, разбавив довольно банальный сюжет весьма хитрым «научным» обоснованием. Просто так снимать падающие с неба камни сегодня даже SyFy-режиссёры себе не позволяют, пытаясь в неких научных глубинах отыскать «страшилку» для зрителя. И такая «страшилка» нашлась.
Оказывается, во всём виноваты извержения вулканов на побережье. Они вызвали атмосферный дисбаланс, из-за которого озон выбросило в мезосферу, он стал жидкостью и попал в оболочку из замёрзшего газа. Получился сухой лёд, который горит. Первичный эффект данного явления — это водяные смерчи и торнадо, а вторичный эффект — смерчи стали захватывать капли замёрзшего озона и превращать их в подобие камней, способных взрываться по причине разности атмосферного давления (достигая уровня моря они становятся нестабильными).
Это лишь сухой научный комментарий того, что происходит в фильме. Снято красиво, красочно. Но не «цепляет» — слишком всё прилизано. Интриги особой нет. Всё происходит как бы само собой. Пару раз главному герою профессору Джо Рэндаллу (Пол Йохансон), приходится под «проливным камнепадом» метаться по городу в поисках своих детей. Самым неожиданном является то, что в фильме нет силовых ведомств, «на раз» решающих проблемы возможного уничтожения города.
Здесь «мироспасением» занимаются простые парни, и лишь во второй половине к ним присоединяется руководитель некоего научного центра Тара Лайкин (Теа Гилл), с разрешения которой Джо Рэндаллу будет дозволено испытать на «каменном смерче» этакую базуку (напоминающую транклюкатор из «Кин-Дза-Дза») с начинкой, способной вмиг усмирить чудовищный смерч. В общем, простенький фильм, способный поразить разве что детей…

MediaInfo

Общее
Уникальный идентификатор : 181989609521285510786130813718529127511 (0x88E9EC81B97744359DB728E061753457)
Полное имя : N:\Stonados 2013.x264.BDRip.1080p.Rus.kosmoaelita.mkv
Формат : Matroska
Версия формата : Version 4 / Version 2
Размер файла : 6,67 Гбайт
Продолжительность : 1 ч. 28 м.
Общий поток : 10,8 Мбит/сек
Название фильма : Stonados 2013.x264.BDRip.1080p.Rus.kosmoaelita
Дата кодирования : UTC 2015-04-03 23:55:22
Программа кодирования : mkvmerge v6.6.0 ('The Edge Of The In Between') built on Dec 1 2013 17:55:00
Библиотека кодирования : libebml v1.3.0 + libmatroska v1.4.1
Видео
Идентификатор : 1
Формат : AVC
Формат/Информация : Advanced Video Codec
Профиль формата : High@L4.1
Параметр CABAC формата : Да
Параметр ReFrames формата : 4 кадра
Идентификатор кодека : V_MPEG4/ISO/AVC
Продолжительность : 1 ч. 28 м.
Битрейт : 9141 Кбит/сек
Ширина : 1920 пикселей
Высота : 1080 пикселей
Соотношение сторон : 16:9
Режим частоты кадров : Постоянный
Частота кадров : 23,976 кадра/сек
Цветовое пространство : YUV
Субдискретизация насыщенности : 4:2:0
Битовая глубина : 8 бит
Тип развёртки : Прогрессивная
Бит/(Пиксели*Кадры) : 0.184
Размер потока : 5,49 Гбайт (82%)
Заголовок : kosmoaelita
Библиотека кодирования : x264 core 140 r2377 1ca7bb9
Настройки программы : cabac=1 / ref=4 / deblock=1:-3:-3 / analyse=0x3:0x133 / me=umh / subme=8 / psy=1 / psy_rd=1.00:0.15 / mixed_ref=1 / me_range=16 / chroma_me=1 / trellis=1 / 8x8dct=1 / cqm=0 / deadzone=21,11 / fast_pskip=0 / chroma_qp_offset=-4 / threads=18 / lookahead_threads=3 / sliced_threads=0 / nr=0 / decimate=1 / interlaced=0 / bluray_compat=0 / constrained_intra=0 / bframes=3 / b_pyramid=2 / b_adapt=2 / b_bias=0 / direct=3 / weightb=1 / open_gop=0 / weightp=2 / keyint=230 / keyint_min=22 / scenecut=40 / intra_refresh=0 / rc_lookahead=50 / rc=2pass / mbtree=1 / bitrate=9141 / ratetol=1.0 / qcomp=0.60 / qpmin=10 / qpmax=69 / qpstep=4 / cplxblur=20.0 / qblur=0.5 / ip_ratio=1.40 / aq=1:1.00
Язык : English
Default : Да
Forced : Нет
Аудио #1
Идентификатор : 2
Формат : AC-3
Формат/Информация : Audio Coding 3
Расширение режима : CM (complete main)
Параметр Endianness формата : Big
Идентификатор кодека : A_AC3
Продолжительность : 1 ч. 28 м.
Вид битрейта : Постоянный
Битрейт : 192 Кбит/сек
Каналы : 2 канала
Расположение каналов : Front: L R
Частота : 48,0 КГц
Битовая глубина : 16 бит
Метод сжатия : С потерями
Размер потока : 121 Мбайт (2%)
Заголовок : Русский ПМ (SD Media для SyFy)
Язык : Russian
Default : Да
Forced : Нет
Аудио #2
Идентификатор : 3
Формат : DTS
Формат/Информация : Digital Theater Systems
Режим : 16
Параметр Endianness формата : Big
Идентификатор кодека : A_DTS
Продолжительность : 1 ч. 28 м.
Вид битрейта : Постоянный
Битрейт : 1509 Кбит/сек
Каналы : 6 каналов
Расположение каналов : Front: L C R, Side: L R, LFE
Частота : 48,0 КГц
Битовая глубина : 16 бит
Метод сжатия : С потерями
Размер потока : 951 Мбайт (14%)
Заголовок : Eng DTS 5.1 1510
Язык : English
Default : Нет
Forced : Нет
Меню
00:00:00.000 : en:00:00:00.000
00:09:59.974 : en:00:09:59.974
00:19:59.990 : en:00:19:59.990
00:29:59.964 : en:00:29:59.964
00:39:59.980 : en:00:39:59.980
00:49:59.997 : en:00:49:59.997
00:59:59.971 : en:00:59:59.971
01:09:59.987 : en:01:09:59.987
01:19:59.961 : en:01:19:59.961

Скриншоты








Скринлист

cd Рип дополнительно залит на mail.ru cd2
[Profile] [PM]
Quick Reply

Name:

            
Heads necessary to send messages to enable JavaScript
Display posts:    
Reply to topic

Current time is: 20-Apr 05:54

All times are UTC + 3.5



You cannot post new topics in this forum
You can reply to topics in this forum
You cannot edit your posts in this forum
You cannot delete your posts in this forum
You cannot vote in polls in this forum
You cannot attach files in this forum
You cannot download files in this forum