Проект Лунная база / Project Moon Base (Ричард Талмадж / Richard Talmadge) [1953 г., фантастика, DVDRip] ЛО (den904), СТ (OxOTHuK53)

Reply to topic
 
Author Message

Guest ®

Gender: Unknown

Post 21-Sep-2012 10:11

[Quote]

Проект Лунная база / Project Moon Base
Год выпуска: 1953
Страна: США
Жанр: фантастика
Продолжительность: 01:03:05
Перевод 1: ЛО (kosmoaelita,den904 )
Перевод 2: Субтитры и перевод OxOTHuK53
Режиссер: Ричард Талмадж / Richard Talmadge
В ролях: Донна Мартелл, Хейден Рорк, Росс Форд, Ларри Джонс, Херб Джейкобс, Барбара Моррисон, Эрнестин Барье, Джеймс Крэвен, Джон Хедлоу, Питер Адамс
Описание: Американское правительство приняло решение о строительстве военных баз на Луне. С этой целью на Луну отправляют трех космонавтов для предварительного обследования наиболее подходящих территорий. Но вскоре выясняется, что один космонавт оказывается шпионом иностранной разведки. И вот уже не только цель экспедиции, но и все будущее человечества оказывается под угрозо…
Доп. информация: фильм поставлен по рассказу Роберта Хайнлайна
Качество: DVDRip
Формат: mkv
Видео: x264, 2702 кбит/с, 720x540
Аудио 1: Русский ЛО (den904) (AC3, 1 ch, 192 Кбит/с)
Аудио 2: Английский (AC3, 2 ch, 192 Кбит/с)
Субтитры : Русские (OxOTHuK53)


Русская озвучка

Релиз

Рип и монтаж - sasha20072007
Перевод и субтитры - OxOTHuK53
Русская озвучка по заказу kosmoaelita.com - den904
Для Украины: рип и оригинальный ДВД дополнительно залиты в файлохранилище
Для удаления и добавления дорожек в mkv используйте бесплатную mkvmerge GUI 5.80

Дополнительно

слоган «Thrills Come Rocketing to the Screen as Science Smashes a New Frontier!»
Also Known As (AKA)
Cat Woman on the Moon USA (reissue title)
Project Moonbase USA (alternative spelling)
Ring Around the Moon USA (working title)

MediaInfo

Общее
Уникальный идентификатор : 173091943198551946709542126206587202408 (0x82384BAFF81C12598F10A87999436B68)
Полное имя : F:\Project Moonbase 1953.x264.DVDRip.Rus.kosmoaelita.mkv
Формат : Matroska
Версия формата : Version 4 / Version 2
Размер файла : 1,37 Гбайт
Продолжительность : 1 ч. 3 м.
Общий поток : 3099 Кбит/сек
Название фильма : Проект «Лунная база» / Project Moonbase / 1953 / rip by sasha20072007 (2012-08-17) / Релиз kosmoaelita
Дата кодирования : UTC 2013-09-13 17:00:26
Программа кодирования : mkvmerge v6.3.0 ('You can't stop me!') built on Jul 19 2013 16:27:38
Библиотека кодирования : libebml v1.3.0 + libmatroska v1.4.1
Attachment : Yes / Yes / Yes
Видео
Идентификатор : 1
Формат : AVC
Формат/Информация : Advanced Video Codec
Профиль формата : High@L4.1
Параметр CABAC формата : Да
Параметр ReFrames формата : 8 кадров
Идентификатор кодека : V_MPEG4/ISO/AVC
Продолжительность : 1 ч. 3 м.
Битрейт : 2703 Кбит/сек
Ширина : 720 пикселей
Высота : 540 пикселей
Соотношение сторон : 4:3
Режим частоты кадров : Постоянный
Частота кадров : 23,976 кадра/сек
Цветовое пространство : YUV
Субдискретизация насыщенности : 4:2:0
Битовая глубина : 8 бит
Тип развёртки : Прогрессивная
Бит/(Пиксели*Кадры) : 0.290
Размер потока : 1,17 Гбайт (86%)
Библиотека кодирования : x264 core 125 r2200 999b753
Настройки программы : cabac=1 / ref=8 / deblock=1:-2:-1 / analyse=0x3:0x133 / me=umh / subme=11 / psy=1 / psy_rd=1.00:0.17 / mixed_ref=1 / me_range=24 / chroma_me=1 / trellis=2 / 8x8dct=1 / cqm=0 / deadzone=21,11 / fast_pskip=1 / chroma_qp_offset=-3 / threads=6 / lookahead_threads=1 / sliced_threads=0 / nr=0 / decimate=1 / interlaced=0 / bluray_compat=0 / constrained_intra=0 / bframes=10 / b_pyramid=2 / b_adapt=2 / b_bias=0 / direct=3 / weightb=1 / open_gop=0 / weightp=2 / keyint=220 / keyint_min=22 / scenecut=40 / intra_refresh=0 / rc_lookahead=60 / rc=2pass / mbtree=1 / bitrate=2703 / ratetol=1.0 / qcomp=0.60 / qpmin=0 / qpmax=69 / qpstep=4 / cplxblur=20.0 / qblur=0.5 / vbv_maxrate=17500 / vbv_bufsize=14000 / nal_hrd=none / ip_ratio=1.30 / aq=1:0.80
Default : Да
Forced : Нет
Основные цвета : BT.601 PAL
Характеристики трансфера : BT.470 System B, BT.470 System G
Коэффициенты матрицы : BT.601
Аудио #1
Идентификатор : 2
Формат : AC-3
Формат/Информация : Audio Coding 3
Расширение режима : CM (complete main)
Параметр Endianness формата : Big
Идентификатор кодека : A_AC3
Продолжительность : 1 ч. 3 м.
Вид битрейта : Постоянный
Битрейт : 192 Кбит/сек
Каналы : 1 канал
Расположение каналов : Front: C
Частота : 48,0 КГц
Битовая глубина : 16 бит
Метод сжатия : С потерями
Размер потока : 86,6 Мбайт (6%)
Заголовок : Русский ЛО (den904 для kosmoaelita.com)
Язык : Russian
Default : Да
Forced : Нет
Аудио #2
Идентификатор : 3
Формат : AC-3
Формат/Информация : Audio Coding 3
Расширение режима : CM (complete main)
Параметр Endianness формата : Big
Идентификатор кодека : A_AC3
Продолжительность : 1 ч. 3 м.
Вид битрейта : Постоянный
Битрейт : 192 Кбит/сек
Каналы : 1 канал
Расположение каналов : Front: C
Частота : 48,0 КГц
Битовая глубина : 16 бит
Метод сжатия : С потерями
Размер потока : 86,6 Мбайт (6%)
Язык : English
Default : Нет
Forced : Нет
Текст #1
Идентификатор : 4
Формат : VobSub
Идентификатор кодека : S_VOBSUB
Идентификатор кодека/Информация : The same subtitle format used on DVDs
Заголовок : Русский (OxOTHuK53) VobSub
Язык : Russian
Default : Да
Forced : Нет
Текст #2
Идентификатор : 5
Формат : UTF-8
Идентификатор кодека : S_TEXT/UTF8
Идентификатор кодека/Информация : UTF-8 Plain Text
Заголовок : Русский (OxOTHuK53) srt
Язык : Russian
Default : Нет
Forced : Нет
Меню
00:00:00.000 : :Chapter 01
00:10:40.834 : :Chapter 02
00:14:55.201 : :Chapter 03
00:20:36.468 : :Chapter 04
00:26:06.635 : :Chapter 05
00:32:13.802 : :Chapter 06
00:37:29.802 : :Chapter 07
00:40:26.636 : :Chapter 08
00:49:24.669 : :Chapter 09
00:52:31.637 : :Chapter 10
00:59:57.904 : :Chapter 11
01:02:34.338 : :Chapter 12
01:02:59.005 : :Chapter 13

Скриншоты



 

Guest ®

Gender: Unknown

Post 16-Jan-2013 18:11 (after 3 months 25 days)

[Quote]

Уважаемые коллеги!
В аннотации указано: Формат: AVI
А в списке файлов (под спойлером) формат указан: mkv.
Торрент-файл тоже: Project_Moonbase_1953.x264.DVDRip.sasha20072007.mkv.
Но если это "матрешка", то она мне без надобности (не читается на моем DVD-плеере).
Есть ли формат AVI ?
 

admin

Gender: Male

Longevity: 7 years 2 months

Posts: 4723

Post 16-Jan-2013 18:20 (after 9 minutes)

[Quote]

1 Матрешка вам нужна для получения нормальных сабов, которіе нечитабельні на рутрекере.
Извлекаются за пару секунд с помощью MKVExtractGUI.
Потом переименовываете субтитры согласно названию файла на рутрекере и смотрите на двдплеере.
2 Если у вас есть новый плоскопанельный телевизор - записываете mkv на флешку, втыкаете ее в USB-разъем телевизора и смотрите.
3 За полчаса можете сами перекодировать в ави с помощью XviD4PSP 5, выставив слева в окне "Формат" - AVIHardvare, а кодирование звука - COPY
[Profile] [PM]

Guest ®

Gender: Unknown

Post 13-Sep-2013 20:31 (after 7 months 28 days)

[Quote]

Добавлена озвучка от den904
 

Dionisiy22

Gender: Unknown

Longevity: 1 year 9 months

Posts: 54

Post 29-Jan-2019 23:07 (after 5 years 4 months)

[Quote]

помогите скачать, пожалуйста
[Profile] [PM]

pompilius

Gender: Male

Longevity: 2 years

Posts: 239

Post 29-Jan-2019 23:31 (after 24 minutes)

[Quote]

Присоединяюсь к просьбе.
[Profile] [PM]

pompilius

Gender: Male

Longevity: 2 years

Posts: 239

Post 30-Jan-2019 06:30 (after 6 hours)

[Quote]

Нашёл фильм, но только с субтитрами.
[Profile] [PM]

snorrinort

Gender: Male

Longevity: 2 years 6 months

Posts: 126

Post 30-Jan-2019 15:53 (after 9 hours)

[Quote]

раздаю
[Profile] [PM]

pompilius

Gender: Male

Longevity: 2 years

Posts: 239

Post 30-Jan-2019 20:40 (after 4 hours)

[Quote]

Ну вот, не успел скачать((
Раздайте, или лучше залейте куда нибудь, дропбокс или майл например, пожалуйста.
[Profile] [PM]

pompilius

Gender: Male

Longevity: 2 years

Posts: 239

Post 31-Jan-2019 14:56 (after 18 hours)

[Quote]

О, скачал, только как то странно, раздвоился))
[Profile] [PM]
Quick Reply

Name:

            
Heads necessary to send messages to enable JavaScript
Display posts:    
Reply to topic

Current time is: 17-Nov 20:37

All times are UTC + 3



You cannot post new topics in this forum
You can reply to topics in this forum
You cannot edit your posts in this forum
You cannot delete your posts in this forum
You cannot vote in polls in this forum
You cannot attach files in this forum
You cannot download files in this forum