Цитадель / Лунная крепость / Moonbase (Paolo Mazzucato / Паоло Маццукато) [1997, США, фантастика, боевик, DVDRip] ПД (), АО (Карцев)

Reply to topic
 
Author Message

admin ®

Gender: Male

Longevity: 8 years

Posts: 4794

Post 20-Mar-2015 20:13

[Quote]

Цитадель / Лунная крепость / Moonbase
Страна: США, Live Entertainment, Planet Productions
Жанр: фантастика, боевик
Год выпуска: 1997
Продолжительность: 01:25:02
Перевод 1: Профессиональный (двухголосый)
Перевод 2: Авторский (одноголосый) П.Карцев
Режиссер: Paolo Mazzucato / Паоло Маццукато
В ролях:
Scott Plank ... John Russell
Jocelyn Seagrave ... Dana
Robert O'Reilly ... Stark
Kurt Fuller ... Deckert
Randy Vasquez ... Masani
Gretchen Palmer ... Mina
Stack Pierce ... Will
Billy Maddox ... Lt. Caldecott
John Philbin ... Lucas
Samantha Phillips ... Gorgeous Woman
George 'Buck' Flower ... Murdoch
Sheila Korsi ... Masani's Mom
Brian Teshera ... Loomis
Mel Novak ... Guard
Andre Rosey Brown ... Sanitation Engineer
Описание: 2065 год. Темная сторона Луны превращена во всемирную свалку, сюда свозят опасные токсичные отходы со всех уголков Галактики. Для переработки этих отходов здесь же построена космическая станция. А на орбите Луны располагается суперсовременная каторжная тюрьма для особо опасных преступников. Группе рецидивистов удается совершить из нее дерзкий побег, и в трюме космического мусоровоза они добираются до Луны.
Дальше всё просто — отсидевшись на Лунной станции, дождаться транспорта с Земли и покинуть Луну. Но информация, попавшая в их руки, меняет всё. И теперь цель бандитов — поиск ядерной боеголовки, где-то здесь спрятанной, и захват космического корабля, приближающегося к Луне. Лишь одно не учтено в их преступных планах — неожиданно жёсткое сопротивление сотрудников мирной станции…

Качество: DVDRip
Формат: MKV
Видео: x264, 2300 кбит/с, 720x544, 25 к/с
Аудио 1: Русский ПД (AC3, 2 ch, 192 Кбит/с)
Аудио 2: Русский АО (Карцев) (AC3, 2 ch, 192 Кбит/с)
Аудио 3: Английский (AC3, 2 ch, 192 Кбит/с)
Работа над релизом:
Рип на йден на синемагеддоне.
Спасибо =VampirO= за предоставленную аудиодорожку
Синхронизация русской дорожки - kosmoaelita



Пример русской озвучки

Дополнительно

слоган «Welcome to the dark side of the moon»
рейтинг MPAA лицам до 17 лет обязательно присутствие взрослого
Формат изображения: 1.85 : 1
Камера: Moviecam Camera
Формат копии: 35 mm
Формат съёмок: 35 mm
Изображение: цветное
Язык: английский
Also Known As (AKA)
Brazil Moonbase - Reduto do Crime
Hungary Bázis a Holdon
================================================
Для Украины: рип и оригинальный ДВД дополнительно залиты в файлохранилище
Для удаления,добавления и извлечения дорожек в mkv используйте бесплатную портативную mkvmerge GUI 7.1.0
Для присоединения потом дорожек к avi воспользуйтесь VirtualDubMod

Отзывы

Самые лучшие фильмы это 80-90е годы.Нынешнее кино отстой с его супер пупер спецэффектами.
----------------------
Фильм малобюджетный, и игра актёров такая же, малобюджетная. Как-то всё происходящее в нём, неубедительно.
------------------------------

MediaInfo

Общее
Уникальный идентификатор : 194172599045511990370424657885693819704 (0x9214484408D80B868CDCBFF0A0213B38)
Полное имя : N:\Moonbase 1997.x264.DVDRip.2xRus.kosmoaelita.mkv
Формат : Matroska
Версия формата : Version 4 / Version 2
Размер файла : 1,71 Гбайт
Продолжительность : 1 ч. 25 м.
Общий поток : 2878 Кбит/сек
Название фильма : Цитадель / Moonbase 1997 / kosmoaelita
Дата кодирования : UTC 2018-03-11 01:29:18
Программа кодирования : mkvmerge v6.6.0 ('The Edge Of The In Between') built on Dec 1 2013 17:55:00
Библиотека кодирования : libebml v1.3.0 + libmatroska v1.4.1
Attachments : poster.jpg
Видео
Идентификатор : 1
Формат : AVC
Формат/Информация : Advanced Video Codec
Профиль формата : High@L3.1
Параметр CABAC формата : Да
Параметр ReFrames формата : 6 кадров
Идентификатор кодека : V_MPEG4/ISO/AVC
Продолжительность : 1 ч. 25 м.
Битрейт : 2300 Кбит/сек
Ширина : 720 пикселей
Высота : 544 пикселя
Соотношение сторон : 4:3
Режим частоты кадров : Постоянный
Частота кадров : 25,000 кадров/сек
Цветовое пространство : YUV
Субдискретизация насыщенности : 4:2:0
Битовая глубина : 8 бит
Тип развёртки : Прогрессивная
Бит/(Пиксели*Кадры) : 0.235
Размер потока : 1,33 Гбайт (78%)
Заголовок : kosmoaelita
Библиотека кодирования : x264 core 65
Настройки программы : cabac=1 / ref=6 / deblock=1:-2:-2 / analyse=0x3:0x113 / me=umh / subme=7 / psy_rd=1.0:0.0 / mixed_ref=0 / me_range=32 / chroma_me=1 / trellis=0 / 8x8dct=1 / cqm=0 / deadzone=21,11 / chroma_qp_offset=-2 / threads=3 / nr=0 / decimate=1 / mbaff=0 / bframes=5 / b_pyramid=0 / b_adapt=1 / b_bias=0 / direct=1 / wpredb=0 / keyint=250 / keyint_min=25 / scenecut=40(pre) / rc=2pass / bitrate=2300 / ratetol=1.0 / qcomp=0.60 / qpmin=10 / qpmax=51 / qpstep=4 / cplxblur=20.0 / qblur=0.5 / ip_ratio=1.40 / pb_ratio=1.30 / aq=1:1.00
Язык : English
Default : Да
Forced : Нет
Цветовой диапазон : Limited
Основные цвета : BT.601 NTSC
Характеристики трансфера : BT.709
Коэффициенты матрицы : BT.601
Аудио #1
Идентификатор : 2
Формат : AC-3
Формат/Информация : Audio Coding 3
Расширение режима : CM (complete main)
Параметр Endianness формата : Big
Идентификатор кодека : A_AC3
Продолжительность : 1 ч. 25 м.
Вид битрейта : Постоянный
Битрейт : 192 Кбит/сек
Каналы : 2 канала
Расположение каналов : Front: L R
Частота : 48,0 КГц
Частота кадров : 31,250 кадров/сек (1536 spf)
Метод сжатия : С потерями
Размер потока : 117 Мбайт (7%)
Заголовок : Русский ПД
Язык : Russian
Default : Да
Forced : Нет
Аудио #2
Идентификатор : 3
Формат : AC-3
Формат/Информация : Audio Coding 3
Расширение режима : CM (complete main)
Параметр Endianness формата : Big
Идентификатор кодека : A_AC3
Продолжительность : 1 ч. 25 м.
Вид битрейта : Постоянный
Битрейт : 192 Кбит/сек
Каналы : 2 канала
Расположение каналов : Front: L R
Частота : 48,0 КГц
Частота кадров : 31,250 кадров/сек (1536 spf)
Метод сжатия : С потерями
Размер потока : 117 Мбайт (7%)
Заголовок : Русский АО (П.Карцев) - с лицензионной VHS от концерна "Видеосервис"
Язык : Russian
Default : Нет
Forced : Нет
Аудио #3
Идентификатор : 4
Формат : AC-3
Формат/Информация : Audio Coding 3
Расширение режима : CM (complete main)
Параметр Endianness формата : Big
Идентификатор кодека : A_AC3
Продолжительность : 1 ч. 25 м.
Вид битрейта : Постоянный
Битрейт : 192 Кбит/сек
Каналы : 2 канала
Расположение каналов : Front: L R
Частота : 48,0 КГц
Частота кадров : 31,250 кадров/сек (1536 spf)
Метод сжатия : С потерями
Размер потока : 117 Мбайт (7%)
Язык : English
Default : Нет
Forced : Нет
Меню
00:00:00.000 : en:Chapter 1
00:05:58.840 : en:Chapter 2
00:12:03.880 : en:Chapter 3
00:21:24.960 : en:Chapter 4
00:29:28.560 : en:Chapter 5
00:37:53.480 : en:Chapter 6
00:43:51.760 : en:Chapter 7
00:50:23.320 : en:Chapter 8
00:57:39.600 : en:Chapter 9
01:03:14.480 : en:Chapter 10
01:10:26.600 : en:Chapter 11
01:17:21.040 : en:Chapter 12
01:22:08.600 : en:Chapter 13
01:25:01.080 : en:Chapter 14

Скриншоты












Скринлист

Файл дополнительно залит на ОБЛАКО
[Profile] [PM]

admin ®

Gender: Male

Longevity: 8 years

Posts: 4794

Post 20-Mar-2015 20:18 (after 4 minutes)

[Quote]

По сравнению с рутрекером - рип лучшего качества и исправлен рассинхрон во второй части фильма.
[Profile] [PM]
Display posts:    
Reply to topic

Current time is: 21-Sep 12:17

All times are UTC + 3



You cannot post new topics in this forum
You cannot reply to topics in this forum
You cannot edit your posts in this forum
You cannot delete your posts in this forum
You cannot vote in polls in this forum
You cannot attach files in this forum
You cannot download files in this forum