Космический корабль 1 стартует / Weltraumschiff 1 startet... (Антон Куттер / Anton Kutter) [1937 г., фантастика, DVDRip-AVC] ЛО (sasha20072007), СТ

Reply to topic
 
Author Message

Guest ®

Gender: Unknown

Post 21-Sep-2012 10:02

[Quote]

Космический корабль 1 стартует / Weltraumschiff 1 startet...
Год выпуска: 1937
Страна: Германия
Жанр: фантастика
Продолжительность: 00:23:09
Перевод: ЛО (sasha20072007) + Субтитры
Режиссер: Антон Куттер / Anton Kutter
В ролях: Фриц Рейф, Рольф Вернике, Карл Вери
Описание: В 1937 году на экраны немецких кинотеатров вышел короткометражный фантастический фильм Weltraumschiff 1 startet (Старт первого космического корабля). Почему-то этот фильм именуют нацистским и пропагандистским. Но, на мой взгляд, если он что и пропагандирует, то только освоение космоса.Никто там не говорит – сегодня Германия, завтра – весь мир, послезавтра – Луна. Нет, просто показан старт космического корабля и его полет к Луне. Но, может быть, вся пропаганда осталась за кадром и в этот эффектный отрывок не попала.
Осмелюсь предположить, Weltraumschiff 1 startet своего рода ответом нацистов на советский блокбастер «Космический рейс», снятый двумя годами ранее.

Качество: DVDRip-AVC
Формат: MKV
Видео: х264 1896 Кбит/с, 704х528
Аудио 1: Русский (AC3, 2 ch, 160 Кбит/с)
Аудио 2: немецкий (AC3, 2 ch, 192 Кбит/с)

Релиз

Рип с немецкого архива - sasha20072007
Перевод - В.Овецкий
Озвучка - sasha20072007
Для Украины:рип дополнительно залит в файлохранилище
Для удаления и добавления дорожек в mkv используйте бесплатную mkvmerge GUI 5.80

Дополнительно

в 1957 году американцы взяли этот фильм и советский мультфильм Полет на Луну и выпустили мультсериал под названием Исследователи космоса

MediaInfo

Общее
Уникальный идентификатор : 226825301901453349786549234872186770420 (0xAAA4F6CFC2999D68ACA2A32EED1B13F4)
Полное имя : F:\Kosmokorabl.1.startujet.1937.DVDRip.x264.mkv
Формат : Matroska
Версия формата : Version 2
Размер файла : 380 Мбайт
Продолжительность : 23 м.
Общий поток : 2293 Кбит/сек
Название фильма : Космический корабль 1 стартует Weltraumschiff 1 startet... 1937 rip by sasha20072007, 2012г.
Дата кодирования : UTC 2012-02-01 03:39:48
Программа кодирования : mkvmerge v5.2.1 ('A Far Off Place') built on Jan 27 2012 20:24:36
Библиотека кодирования : libebml v1.2.3 + libmatroska v1.3.0
Видео
Идентификатор : 1
Формат : AVC
Формат/Информация : Advanced Video Codec
Профиль формата : High@L4.1
Параметр CABAC формата : Да
Параметр ReFrames формата : 8 кадров
Идентификатор кодека : V_MPEG4/ISO/AVC
Битрейт : 1896 Кбит/сек
Ширина : 704 пикселя
Высота : 528 пикселей
Соотношение сторон : 4:3
Режим частоты кадров : Переменный
Частота кадров в оригинале : 23,976 кадра/сек
Цветовое пространство : YUV
Субдискретизация насыщенности : 4:2:0
Битовая глубина : 8 бит
Тип развёртки : Прогрессивная
Библиотека кодирования : x264 core 120 r2146 bcd41db
Настройки программы : cabac=1 / ref=8 / deblock=1:-3:-3 / analyse=0x3:0x133 / me=umh / subme=11 / psy=1 / psy_rd=0.90:0.05 / mixed_ref=1 / me_range=32 / chroma_me=1 / trellis=2 / 8x8dct=1 / cqm=0 / deadzone=6,6 / fast_pskip=1 / chroma_qp_offset=-3 / threads=6 / sliced_threads=0 / nr=0 / decimate=0 / interlaced=0 / bluray_compat=0 / constrained_intra=0 / bframes=8 / b_pyramid=2 / b_adapt=2 / b_bias=0 / direct=1 / weightb=1 / open_gop=0 / weightp=2 / keyint=210 / keyint_min=21 / scenecut=40 / intra_refresh=0 / rc_lookahead=60 / rc=crf / mbtree=1 / crf=23.0 / qcomp=0.80 / qpmin=0 / qpmax=69 / qpstep=4 / vbv_maxrate=50000 / vbv_bufsize=50000 / crf_max=0.0 / nal_hrd=none / ip_ratio=1.10 / aq=1:0.50
Язык : German
Default : Да
Forced : Нет
Аудио #1
Идентификатор : 2
Формат : AC-3
Формат/Информация : Audio Coding 3
Расширение режима : CM (complete main)
Параметр Endianness формата : Big
Идентификатор кодека : A_AC3
Продолжительность : 23 м.
Вид битрейта : Постоянный
Битрейт : 160 Кбит/сек
Каналы : 2 канала
Расположение каналов : Front: L R
Частота : 48,0 КГц
Битовая глубина : 16 бит
Метод сжатия : С потерями
Размер потока : 26,5 Мбайт (7%)
Заголовок : Русский (А.Середа)
Язык : Russian
Default : Да
Forced : Нет
Аудио #2
Идентификатор : 3
Формат : AC-3
Формат/Информация : Audio Coding 3
Расширение режима : CM (complete main)
Параметр Endianness формата : Big
Идентификатор кодека : A_AC3
Продолжительность : 23 м.
Вид битрейта : Постоянный
Битрейт : 192 Кбит/сек
Каналы : 2 канала
Расположение каналов : Front: L R
Частота : 48,0 КГц
Битовая глубина : 16 бит
Метод сжатия : С потерями
Размер потока : 31,8 Мбайт (8%)
Язык : German
Default : Нет
Forced : Нет
Текст #1
Идентификатор : 4
Формат : VobSub
Идентификатор кодека : S_VOBSUB
Идентификатор кодека/Информация : The same subtitle format used on DVDs
Заголовок : Русский (VobSub)
Язык : Russian
Default : Нет
Forced : Нет
Текст #2
Идентификатор : 5
Формат : UTF-8
Идентификатор кодека : S_TEXT/UTF8
Идентификатор кодека/Информация : UTF-8 Plain Text
Заголовок : Русский (Виталий Овецкий)
Язык : Russian
Default : Нет
Forced : Нет
Текст #3
Идентификатор : 6
Формат : UTF-8
Идентификатор кодека : S_TEXT/UTF8
Идентификатор кодека/Информация : UTF-8 Plain Text
Язык : German
Default : Нет
Forced : Нет

Скриншоты



Скринлист

cd Рип дополнительно залит на ОБЛАКО cd2
 

admin

Gender: Male

Longevity: 7 years

Posts: 4725

Location: Україна

Post 21-Sep-2012 21:15 (after 11 hours)

[Quote]

Торрент перезалит
[Profile] [PM]

Guest ®

Gender: Unknown

Post 06-Nov-2014 21:53 (after 2 years 1 month)

[Quote]

 
Quick Reply

Name:

            
Heads necessary to send messages to enable JavaScript
Display posts:    
Reply to topic

Current time is: 18-Sep 08:05

All times are UTC + 3



You cannot post new topics in this forum
You can reply to topics in this forum
You cannot edit your posts in this forum
You cannot delete your posts in this forum
You cannot vote in polls in this forum
You cannot attach files in this forum
You cannot download files in this forum