Черный скорпион / The Black Scorpion (Эдвард Людвиг) [1957 г., Фантастика, ужасы, DVDRip] ЛО (den904), СТ (sakches - Антон Каптелов )

Reply to topic
 
Author Message

admin ®

Gender: Male

Longevity: 7 years 2 months

Posts: 4723

Post 21-Sep-2012 09:03

[Quote]

Черный скорпион / The Black Scorpion
Год выпуска: 1957
Страна: США
Жанр: Фантастика, ужасы
Продолжительность: 01:27:22
Перевод: ЛО den904 по переводу от sakches
Режиссер: Эдвард Людвиг
В ролях: Ричард Деннинг, Мара Кордэй, Карлос Ривас, Марио Наварро, Карлос Мускис, Паскуаль Гарсия Пенья, Фанни Шиллер, Педро Гальван, Артуро Мартинес
Описание: Учёный-геолог Хэнк Скотт и его проводник-мексиканец Артуро Рамос прибывают на место извержения вулкана для его изучения. Они узнают, что кто-то жестоким способом убивает людей из близлежащей деревушки. Они обнаруживают, что извержение вулкана привело к тому, что из земли выползли гигантские скорпионы. Необходимо срочное вмешательство армии…
Качество: DVDRip
Формат: MKV
Видео: x264, 1721 Кбит/с, 704х528 crf=22
Аудио 2: Русский ЛО (den904) (AC3, 1 ch, 192 Кбит/с)
Аудио 2: Английский (AC3, 1 ch, 192 Кбит/с)
Субтитры : Русские, английские, французские, испанские


Пример русской озвучки:

Работа над релизом:
Рип с DVD5 - sasha200720007, качество crf=22
Субтитры: sakches (Антон Каптелов)
Русская озвучка по заказу kosmoaelita - den904
Спонсор русской озвучки - Андрей Берг

Рецензия

Скорпион-скорпион-СКОРПИОНИЩЕ!
Гигантские скорпионы в мексиканской деревушке! Геолог Хэнк Скотт об этом ещё не знает, но вот-вот поймет, кому под силу разбомбить служебную машину полицейского, а также заставить людей паниковать, бежать не щадя своих ног, кричать во всю глотку…
Фильм 1957 года, а значит первое, что может прийти в голову — скорпионы-переростки должно быть смешные. Да, смешные! Но и активные! Они сбивают и рушат хвостом самолёты, они ловко управляются с танками, они в одну секунду способны перекусить человека пополам. Есть кое-что против чего они не попрут, но спойлерить не хотелось бы. Смотрите сами.
Да, главное здесь это монстры. Они хорошие, честное словно, но есть существенный один минус. Когда раз за разом показывают крупным планом фэйс вожака-громилы, то это начинает изрядно надоедать. Хоть медаль вручай монтажёру с оператором, они умудряются показать громоздкую голову и сверху, и сбоку, чуть ли не снизу. Это можно списать на время, конечно (т. е. спецэффекты технически довольно примитивные), но было бы лучше, если б таких сцен было поменьше. Изрядное удовольствие должна доставить финальная сцена, где скорпионище вступает в бой с тяжёлой артиллерией на стадионе.
Драматические эпизоды-отступления тоже наличествуют. И они тоже весьма хороши, ведь в главной роли, полюбившаяся мне актриса — Мара Кордей. Замечательное кино с замечательными скорпионами. Смотрим и хихикаем

MediaInfo

Общее
Уникальный идентификатор : 226531263686348802897274509045016263223 (0xAA6C559BB8356FD697CAB5A8E6777A37)
Полное имя : F:\The Black Scorpion 1957.x264.DVDRip.Rus.kosmoaelita.mkv
Формат : Matroska
Версия формата : Version 4 / Version 2
Размер файла : 1,31 Гбайт
Продолжительность : 1 ч. 27 м.
Общий поток : 2141 Кбит/сек
Название фильма : The Black Scorpion / 1957 / Чёрный скорпион / by sasha20072007 (kosmoaelita)
Дата кодирования : UTC 2015-02-12 14:03:55
Программа кодирования : mkvmerge v6.6.0 ('The Edge Of The In Between') built on Dec 1 2013 17:55:00
Библиотека кодирования : libebml v1.3.0 + libmatroska v1.4.1
Видео
Идентификатор : 1
Формат : AVC
Формат/Информация : Advanced Video Codec
Профиль формата : High@L4.1
Параметр CABAC формата : Да
Параметр ReFrames формата : 8 кадров
Идентификатор кодека : V_MPEG4/ISO/AVC
Продолжительность : 1 ч. 27 м.
Битрейт : 1715 Кбит/сек
Ширина : 704 пикселя
Высота : 528 пикселей
Соотношение сторон : 4:3
Режим частоты кадров : Постоянный
Частота кадров : 23,976 кадра/сек
Цветовое пространство : YUV
Субдискретизация насыщенности : 4:2:0
Битовая глубина : 8 бит
Тип развёртки : Прогрессивная
Бит/(Пиксели*Кадры) : 0.192
Размер потока : 1,05 Гбайт (80%)
Заголовок : kosmoaelita
Библиотека кодирования : x264 core 120 r2164 da19765
Настройки программы : cabac=1 / ref=8 / deblock=1:-3:-3 / analyse=0x3:0x133 / me=umh / subme=11 / psy=1 / psy_rd=0.93:0.06 / mixed_ref=1 / me_range=24 / chroma_me=1 / trellis=2 / 8x8dct=1 / cqm=0 / deadzone=6,6 / fast_pskip=1 / chroma_qp_offset=-3 / threads=12 / sliced_threads=0 / nr=0 / decimate=0 / interlaced=0 / bluray_compat=0 / constrained_intra=0 / bframes=8 / b_pyramid=2 / b_adapt=2 / b_bias=0 / direct=3 / weightb=1 / open_gop=0 / weightp=2 / keyint=220 / keyint_min=22 / scenecut=40 / intra_refresh=0 / rc_lookahead=60 / rc=crf / mbtree=1 / crf=22.0 / qcomp=0.80 / qpmin=0 / qpmax=69 / qpstep=4 / vbv_maxrate=17500 / vbv_bufsize=14000 / crf_max=0.0 / nal_hrd=none / ip_ratio=1.17 / aq=1:0.60
Язык : English
Default : Да
Forced : Нет
Аудио #1
Идентификатор : 2
Формат : AC-3
Формат/Информация : Audio Coding 3
Расширение режима : CM (complete main)
Параметр Endianness формата : Big
Идентификатор кодека : A_AC3
Продолжительность : 1 ч. 27 м.
Вид битрейта : Постоянный
Битрейт : 192 Кбит/сек
Каналы : 1 канал
Расположение каналов : Front: C
Частота : 48,0 КГц
Битовая глубина : 16 бит
Метод сжатия : С потерями
Размер потока : 121 Мбайт (9%)
Заголовок : Русский ЛО (den904 для kosmoaelita.com) - поддержка Андрей Берг
Язык : Russian
Default : Да
Forced : Нет
Аудио #2
Идентификатор : 3
Формат : AC-3
Формат/Информация : Audio Coding 3
Расширение режима : CM (complete main)
Параметр Endianness формата : Big
Идентификатор кодека : A_AC3
Продолжительность : 1 ч. 27 м.
Вид битрейта : Постоянный
Битрейт : 192 Кбит/сек
Каналы : 1 канал
Расположение каналов : Front: C
Частота : 48,0 КГц
Битовая глубина : 16 бит
Метод сжатия : С потерями
Размер потока : 121 Мбайт (9%)
Язык : English
Default : Нет
Forced : Нет
Текст #1
Идентификатор : 4
Формат : VobSub
Режим смешивания : zlib
Идентификатор кодека : S_VOBSUB
Идентификатор кодека/Информация : The same subtitle format used on DVDs
Заголовок : Русский VobSub (sakches)
Язык : Russian
Default : Да
Forced : Нет
Текст #2
Идентификатор : 5
Формат : UTF-8
Идентификатор кодека : S_TEXT/UTF8
Идентификатор кодека/Информация : UTF-8 Plain Text
Заголовок : Русский srt (sakches)
Язык : Russian
Default : Нет
Forced : Нет
Текст #3
Идентификатор : 6
Формат : VobSub
Режим смешивания : zlib
Идентификатор кодека : S_VOBSUB
Идентификатор кодека/Информация : The same subtitle format used on DVDs
Язык : English
Default : Нет
Forced : Нет
Текст #4
Идентификатор : 7
Формат : VobSub
Режим смешивания : zlib
Идентификатор кодека : S_VOBSUB
Идентификатор кодека/Информация : The same subtitle format used on DVDs
Язык : Spanish
Default : Нет
Forced : Нет
Текст #5
Идентификатор : 8
Формат : VobSub
Режим смешивания : zlib
Идентификатор кодека : S_VOBSUB
Идентификатор кодека/Информация : The same subtitle format used on DVDs
Язык : French
Default : Нет
Forced : Нет
Текст #6
Идентификатор : 9
Формат : UTF-8
Идентификатор кодека : S_TEXT/UTF8
Идентификатор кодека/Информация : UTF-8 Plain Text
Язык : Russian
Default : Нет
Forced : Нет
Меню
00:00:00.000 : :Chapter 01
00:02:26.534 : :Chapter 02
00:05:44.201 : :Chapter 03
00:10:25.035 : :Chapter 04
00:12:20.369 : :Chapter 05
00:16:37.369 : :Chapter 06
00:21:30.170 : :Chapter 07
00:23:43.337 : :Chapter 08
00:26:56.337 : :Chapter 09
00:30:08.871 : :Chapter 10
00:32:07.338 : :Chapter 11
00:35:00.838 : :Chapter 12
00:38:39.038 : :Chapter 13
00:41:48.705 : :Chapter 14
00:46:44.005 : :Chapter 15
00:49:47.839 : :Chapter 16
00:52:31.707 : :Chapter 17
00:56:16.840 : :Chapter 18
00:57:40.840 : :Chapter 19
01:02:19.207 : :Chapter 20
01:04:21.340 : :Chapter 21
01:06:56.507 : :Chapter 22
01:11:51.041 : :Chapter 23
01:13:22.375 : :Chapter 24
01:17:49.176 : :Chapter 25
01:21:06.676 : :Chapter 26
01:24:43.510 : :Chapter 27
01:26:47.378 : :Chapter 28

Скриншоты


Скринлист

cd Рип дополнительно залит на mail.ru cd2


Last edited by admin on 2015-02-14 01:29; edited 7 times in total
[Profile] [PM]

Guest

Gender: Unknown

Post 21-Sep-2012 10:04 (after 1 hour)

[Quote]

сакчес и есть Антон Каптелов
 

admin ®

Gender: Male

Longevity: 7 years 2 months

Posts: 4723

Post 12-Feb-2015 01:46 (after 2 years 4 months)

[Quote]

Добавлена русская озвучка от den904
[Profile] [PM]

Guest

Gender: Unknown

Post 21-Jan-2018 14:39 (after 2 years 11 months)

[Quote]

Благодарю!
 
Quick Reply

Name:

            
Heads necessary to send messages to enable JavaScript
Display posts:    
Reply to topic

Current time is: 17-Nov 17:28

All times are UTC + 3



You cannot post new topics in this forum
You can reply to topics in this forum
You cannot edit your posts in this forum
You cannot delete your posts in this forum
You cannot vote in polls in this forum
You cannot attach files in this forum
You cannot download files in this forum