Полет на Марс / Flight To Mars (Лесли Селандер) [1951 г., Фантастика, DVDRip-AVC] ПД

Reply to topic
 
Author Message

admin ®

Gender: Male

Longevity: 7 years 2 months

Posts: 4723

Post 20-Sep-2012 15:33

[Quote]

Полет на Марс / Flight To Mars
Год выпуска: 1951
Страна: США
Жанр: Фантастика
Продолжительность: 01:10:45
Перевод: Профессиональный (двухголосый)
Режиссер: Лесли Селандер
В ролях: Маргерит Чепмэн, Кэмерон Митчелл, Артур Франц, Вирджиния Хастон, Джон Лител, Моррис Энкрам
Описание: В полет к Марсу отправляется атомный ракетоплан, построенный военными по заказу ученых. Там земляне встречают марсиан, обитающих в подземном городе. Оказалось, «братья по разуму» исчерпали ресурсы своей планеты, и их цивилизация находится на грани вымирания. Последняя надежда — вторжение на Землю, для чего необходимо захватить атомный ракетоплан. Однако прекрасная марсианка Алита, влюбленная в командира экспедиции Джима Бекера, предупреждает землян, и те спешно эвакуируются.
Качество: DVDRip-AVC
Формат: MKV
Видео: x264, 1526 Кбит/с, 704х536 crf=22
Аудио 1: Русский (AC3, 2 ch, 96 Кбит/с)
Аудио 2: Английский (AC3, 2 ch, 192 Кбит/с)
Субтитры : Испанские, итальянские, сербские

Релиз

Рип с DVD5 - мой (sasha200720), качество crf=22
Сравнение рипа и оригин. ДВД5
Для Украины: рип и оригинальный ДВД дополнительно залиты в файлохранилище
Для удаления и добавления дорожек в mkv используйте бесплатную mkvmerge GUI 5.80

Дополнительно

Слоган «Fifty Years Into The Future!» [/pagesd]
Also Known As (AKA)
Matka avaruuteen Finland
Viaje a marte Venezuela
Volo su Marte Italy
Vuelo a marte Venezuela

MediaInfo

Общее
Уникальный идентификатор : 196496969316203461340092145864224235518 (0x93D3F091684EA9A88B617502628B5FFE)
Полное имя : E:\Polet.na.Mars.1951.x264.DVDRip.sasha20072007.mkv
Формат : Matroska
Версия формата : Version 2
Размер файла : 938 Мбайт
Продолжительность : 1 ч. 10 м.
Общий поток : 1850 Кбит/сек
Название фильма : Flight To Mars / Полет на Марс / 1951 / by sasha20072007
Дата кодирования : UTC 2012-03-31 01:26:38
Программа кодирования : mkvmerge v5.4.0 ('Piper') built on Mar 18 2012 18:22:43
Библиотека кодирования : libebml v1.2.3 + libmatroska v1.3.0
Видео
Идентификатор : 1
Формат : AVC
Формат/Информация : Advanced Video Codec
Профиль формата : High@L4.1
Параметр CABAC формата : Да
Параметр ReFrames формата : 8 кадров
Идентификатор кодека : V_MPEG4/ISO/AVC
Продолжительность : 1 ч. 10 м.
Битрейт : 1526 Кбит/сек
Ширина : 704 пикселя
Высота : 536 пикселей
Соотношение сторон : 4:3
Режим частоты кадров : Постоянный
Частота кадров : 23,976 кадра/сек
Цветовое пространство : YUV
Субдискретизация насыщенности : 4:2:0
Битовая глубина : 8 бит
Тип развёртки : Прогрессивная
Бит/(Пиксели*Кадры) : 0.169
Размер потока : 773 Мбайт (82%)
Библиотека кодирования : x264 core 120 r2164 da19765
Настройки программы : cabac=1 / ref=8 / deblock=1:-3:-3 / analyse=0x3:0x133 / me=umh / subme=11 / psy=1 / psy_rd=0.93:0.06 / mixed_ref=1 / me_range=24 / chroma_me=1 / trellis=2 / 8x8dct=1 / cqm=0 / deadzone=6,6 / fast_pskip=1 / chroma_qp_offset=-3 / threads=12 / sliced_threads=0 / nr=0 / decimate=0 / interlaced=0 / bluray_compat=0 / constrained_intra=0 / bframes=8 / b_pyramid=2 / b_adapt=2 / b_bias=0 / direct=3 / weightb=1 / open_gop=0 / weightp=2 / keyint=220 / keyint_min=22 / scenecut=40 / intra_refresh=0 / rc_lookahead=60 / rc=crf / mbtree=1 / crf=22.0 / qcomp=0.80 / qpmin=0 / qpmax=69 / qpstep=4 / vbv_maxrate=17500 / vbv_bufsize=14000 / crf_max=0.0 / nal_hrd=none / ip_ratio=1.17 / aq=1:0.60
Default : Да
Forced : Нет
Аудио #1
Идентификатор : 2
Формат : AC-3
Формат/Информация : Audio Coding 3
Расширение режима : CM (complete main)
Параметр Endianness формата : Big
Идентификатор кодека : A_AC3
Продолжительность : 1 ч. 10 м.
Вид битрейта : Постоянный
Битрейт : 96,0 Кбит/сек
Каналы : 1 канал
Расположение каналов : Front: C
Частота : 48,0 КГц
Битовая глубина : 16 бит
Метод сжатия : С потерями
Размер потока : 48,6 Мбайт (5%)
Заголовок : Русский (проф. двухголосый)
Язык : Russian
Default : Да
Forced : Нет
Аудио #2
Идентификатор : 3
Формат : AC-3
Формат/Информация : Audio Coding 3
Расширение режима : CM (complete main)
Параметр Endianness формата : Big
Идентификатор кодека : A_AC3
Продолжительность : 1 ч. 10 м.
Вид битрейта : Постоянный
Битрейт : 192 Кбит/сек
Каналы : 1 канал
Расположение каналов : Front: C
Частота : 48,0 КГц
Битовая глубина : 16 бит
Метод сжатия : С потерями
Размер потока : 97,3 Мбайт (10%)
Заголовок : Engl
Язык : English
Default : Нет
Forced : Нет
Текст #1
Идентификатор : 4
Формат : UTF-8
Идентификатор кодека : S_TEXT/UTF8
Идентификатор кодека/Информация : UTF-8 Plain Text
Язык : Spanish
Default : Нет
Forced : Нет
Текст #2
Идентификатор : 5
Формат : UTF-8
Идентификатор кодека : S_TEXT/UTF8
Идентификатор кодека/Информация : UTF-8 Plain Text
Язык : Italian
Default : Нет
Forced : Нет
Текст #3
Идентификатор : 6
Формат : UTF-8
Идентификатор кодека : S_TEXT/UTF8
Идентификатор кодека/Информация : UTF-8 Plain Text
Язык : Serbian
Default : Нет
Forced : Нет
Меню
00:00:00.000 : :Chapter 01
00:13:29.101 : :Chapter 02
00:17:32.501 : :Chapter 03
00:22:02.102 : :Chapter 04
00:28:26.402 : :Chapter 05
00:32:32.402 : :Chapter 06
00:42:24.202 : :Chapter 07
00:43:53.502 : :Chapter 08
00:48:54.702 : :Chapter 09
00:57:52.002 : :Chapter 10
01:02:06.703 : :Chapter 11
01:06:51.304 : :Chapter 12

Скриншоты



[Profile] [PM]

победитель времени

Gender: Unknown

Post 27-Feb-2013 22:00 (after 5 months 7 days)

[Quote]

Это римейк Советской "Аэлиты" 1925 года !!!!
 
Quick Reply

Name:

            
Heads necessary to send messages to enable JavaScript
Display posts:    
Reply to topic

Current time is: 17-Nov 21:41

All times are UTC + 3



You cannot post new topics in this forum
You can reply to topics in this forum
You cannot edit your posts in this forum
You cannot delete your posts in this forum
You cannot vote in polls in this forum
You cannot attach files in this forum
You cannot download files in this forum