Аварийная посадка Макс Кью / Космическая катастрофа / Max Q Emergency Landing (Max Q) (Майкл Шапиро / Michael Shapiro) [1998 г., фантастика, приключения, катастрофа, DVDRip-AVC] ПМ

Reply to topic
 
Author Message

admin ®

Gender: Male

Longevity: 7 years 2 months

Posts: 4721

Post 20-Sep-2012 14:51

[Quote]

Аварийная посадка Макс Кью / Космическая катастрофа / Max Q Emergency Landing (Max Q)
Год выпуска: 1998
Страна: Touchstone Pictures, Jerry Bruckheimer
Жанр: фантастика, приключения, катастрофа
Продолжительность: 01:23:15
Перевод: Профессиональный (многоголосый, закадровый)
Режиссер: Майкл Шапиро / Michael Shapiro
В ролях: Кристофер Кеннеди, Сьюзетт Мейерс, Джилл Кроп, Кейт Лайбен, Митчел Костерман, Дмитрий Чеповецкий, Майкл Роджерс, Нил Дэнис, Б.Дж. Харрисон, Трэйси Нью, Питер Брайант, Грег Майклс, Крис Эллис, Лесли Хоран, Кевин МакНалти, Кристофер Джон Филдс, Дэнис Арндт, Таша Смит, Джеффри Блейк, Нед Вон, Пегит Брюстер, Билл Кэмпбелл
Описание: В результате непредвиденной аварии «Шаттла» рядовой космический полет космического корабля становится самым кошмарным за всю историю НАСА. У обреченных астронавтов, затерянных в космосе, практически не остается шансов вернуться на Землю.Центр Управления Полетом бессилен помочь им, и астронавтам остается лишь надеяться на собственный профессионализм и мужество. Самый современный космический корабль, оснащенный по последнему слову техники, в один миг сделался Летучим Голландцем космоса. Если астронавтам не удастся восстановить управление «Шаттлом`, зловещая черная бездна поглотит их навсегда.
Качество: DVDRip-AVC
Формат: MKV
Видео: x264, 1761 кбит/с, 720x548 crf=18
Аудио 1: Русский (AC3, 2 ch, 256 Кбит/с)
Аудио 2: Английский (AC3, 2 ch, 192 Кбит/с)
Аудио 3: Немецкий (AC3, 2 ch, 192 Кбит/с)
Аудио 4: Итальянский (AC3, 2 ch, 192 Кбит/с)
Субтитры : Английские, немецкие, итальянские

Релиз

Рип и монтаж - sasha20072007
Лог кодирования и постер - в контейнере.
Сравнение с рипом в сети
Для Украины: рип и ДВД5 дополнительно залиты в файлохранилище
Для удаления и добавления дорожек в mkv используйте бесплатную mkvmerge GUI 5.80

Дополнительно

Also Known As (AKA)
Max Q: Emergency Landing Germany / UK / USA (alternative title)
Max Q Finland (Swedish title) / Portugal (video title)
Avaruuden vangit Finland
Kényszerleszállás Hungary (imdb display title)
Max Q: Anagastiki prosgeiosi Greece (transliterated ISO-LATIN-1 title)
Max Q: Aterrizaje de emergencia Spain
Max Q: Aterrizaje forzoso Argentina (video title)

MediaInfo

Общее
Уникальный идентификатор : 247720112994910708756846085368530636528 (0xBA5D2889420378979ABB042A14BC8EF0)
Полное имя : F:\Max Q Emergency Landing.1998.x264.DVDRip.sasha20072007.mkv
Формат : Matroska
Версия формата : Version 2
Размер файла : 1,54 Гбайт
Продолжительность : 1 ч. 23 м.
Общий поток : 2646 Кбит/сек
Название фильма : Max Q Emergency Landing (Max Q) / 1998 / Космическая катастрофа / Аварийная посадка / rip by sasha20072007 (2012-09-20)
Дата кодирования : UTC 2012-09-20 11:16:16
Программа кодирования : mkvmerge v5.8.0 ('No Sleep / Pillow') built on Sep 2 2012 15:37:04
Библиотека кодирования : libebml v1.2.3 + libmatroska v1.3.0
Attachment : Yes / Yes
Видео
Идентификатор : 1
Формат : AVC
Формат/Информация : Advanced Video Codec
Профиль формата : High@L4.1
Параметр CABAC формата : Да
Параметр ReFrames формата : 8 кадров
Идентификатор кодека : V_MPEG4/ISO/AVC
Продолжительность : 1 ч. 23 м.
Битрейт : 1761 Кбит/сек
Ширина : 720 пикселей
Высота : 548 пикселей
Соотношение сторон : 4:3
Режим частоты кадров : Постоянный
Частота кадров : 25,000 кадров/сек
Цветовое пространство : YUV
Субдискретизация насыщенности : 4:2:0
Битовая глубина : 8 бит
Тип развёртки : Прогрессивная
Бит/(Пиксели*Кадры) : 0.179
Размер потока : 1,02 Гбайт (67%)
Библиотека кодирования : x264 core 125 r2208 d9d2288
Настройки программы : cabac=1 / ref=8 / deblock=1:-2:-1 / analyse=0x3:0x133 / me=umh / subme=11 / psy=1 / psy_rd=1.00:0.20 / mixed_ref=1 / me_range=24 / chroma_me=1 / trellis=2 / 8x8dct=1 / cqm=0 / deadzone=21,11 / fast_pskip=1 / chroma_qp_offset=-3 / threads=4 / lookahead_threads=1 / sliced_threads=0 / nr=0 / decimate=1 / interlaced=0 / bluray_compat=0 / constrained_intra=0 / bframes=10 / b_pyramid=2 / b_adapt=2 / b_bias=0 / direct=1 / weightb=1 / open_gop=0 / weightp=2 / keyint=220 / keyint_min=22 / scenecut=40 / intra_refresh=0 / rc_lookahead=60 / rc=crf / mbtree=1 / crf=18.0 / qcomp=0.60 / qpmin=0 / qpmax=69 / qpstep=4 / vbv_maxrate=17500 / vbv_bufsize=14000 / crf_max=0.0 / nal_hrd=none / ip_ratio=1.27 / aq=1:0.80
Default : Да
Forced : Нет
Основные цвета : BT.601 PAL
Характеристики трансфера : BT.470 System B, BT.470 System G
Коэффициенты матрицы : BT.601
Аудио #1
Идентификатор : 2
Формат : AC-3
Формат/Информация : Audio Coding 3
Профиль формата : Dolby Digital
Расширение режима : CM (complete main)
Параметр Endianness формата : Big
Идентификатор кодека : A_AC3
Продолжительность : 1 ч. 23 м.
Вид битрейта : Постоянный
Битрейт : 256 Кбит/сек
Каналы : 2 канала
Расположение каналов : Front: L R
Частота : 48,0 КГц
Битовая глубина : 16 бит
Метод сжатия : С потерями
Размер потока : 152 Мбайт (10%)
Заголовок : ПМ
Язык : Russian
Default : Да
Forced : Нет
Аудио #2
Идентификатор : 3
Формат : AC-3
Формат/Информация : Audio Coding 3
Расширение режима : CM (complete main)
Параметр Endianness формата : Big
Идентификатор кодека : A_AC3
Продолжительность : 1 ч. 23 м.
Вид битрейта : Постоянный
Битрейт : 192 Кбит/сек
Каналы : 2 канала
Расположение каналов : Front: L R
Частота : 48,0 КГц
Битовая глубина : 16 бит
Метод сжатия : С потерями
Размер потока : 114 Мбайт (7%)
Язык : English
Default : Нет
Forced : Нет
Аудио #3
Идентификатор : 4
Формат : AC-3
Формат/Информация : Audio Coding 3
Профиль формата : Dolby Digital
Расширение режима : CM (complete main)
Параметр Endianness формата : Big
Идентификатор кодека : A_AC3
Продолжительность : 1 ч. 23 м.
Вид битрейта : Постоянный
Битрейт : 192 Кбит/сек
Каналы : 2 канала
Расположение каналов : Front: L R
Частота : 48,0 КГц
Битовая глубина : 16 бит
Метод сжатия : С потерями
Размер потока : 114 Мбайт (7%)
Язык : German
Default : Нет
Forced : Нет
Аудио #4
Идентификатор : 5
Формат : AC-3
Формат/Информация : Audio Coding 3
Профиль формата : Dolby Digital
Расширение режима : CM (complete main)
Параметр Endianness формата : Big
Идентификатор кодека : A_AC3
Продолжительность : 1 ч. 23 м.
Вид битрейта : Постоянный
Битрейт : 192 Кбит/сек
Каналы : 2 канала
Расположение каналов : Front: L R
Частота : 48,0 КГц
Битовая глубина : 16 бит
Метод сжатия : С потерями
Размер потока : 114 Мбайт (7%)
Язык : Italian
Default : Нет
Forced : Нет
Текст #1
Идентификатор : 6
Формат : VobSub
Режим смешивания : zlib
Идентификатор кодека : S_VOBSUB
Идентификатор кодека/Информация : The same subtitle format used on DVDs
Язык : English
Default : Да
Forced : Нет
Текст #2
Идентификатор : 7
Формат : VobSub
Режим смешивания : zlib
Идентификатор кодека : S_VOBSUB
Идентификатор кодека/Информация : The same subtitle format used on DVDs
Язык : Italian
Default : Нет
Forced : Нет
Текст #3
Идентификатор : 8
Формат : VobSub
Режим смешивания : zlib
Идентификатор кодека : S_VOBSUB
Идентификатор кодека/Информация : The same subtitle format used on DVDs
Язык : German
Default : Нет
Forced : Нет
Меню
00:00:00.000 : :Chapter 01
00:05:19.160 : :Chapter 02
00:10:54.080 : :Chapter 03
00:15:46.360 : :Chapter 04
00:22:00.040 : :Chapter 05
00:27:51.080 : :Chapter 06
00:34:00.080 : :Chapter 07
00:38:30.040 : :Chapter 08
00:44:40.360 : :Chapter 09
00:49:07.360 : :Chapter 10
00:55:39.360 : :Chapter 11
01:02:29.240 : :Chapter 12
01:07:09.160 : :Chapter 13
01:11:56.040 : :Chapter 14
01:17:52.200 : :Chapter 15
01:20:48.000 : :Chapter 16
01:23:14.280 : :Chapter 17

Скриншоты




cd Рип дополнительно залит на mail.ru cd2


Last edited by admin on 2015-02-22 12:59; edited 3 times in total
[Profile] [PM]

Guest

Gender: Unknown

Post 21-Sep-2012 09:39 (after 18 hours)

[Quote]

русский 256
 

admin ®

Gender: Male

Longevity: 7 years 2 months

Posts: 4721

Post 21-Sep-2012 21:17 (after 11 hours)

[Quote]

Исправил.
[Profile] [PM]
Quick Reply

Name:

            
Heads necessary to send messages to enable JavaScript
Display posts:    
Reply to topic

Current time is: 22-Nov 11:39

All times are UTC + 3



You cannot post new topics in this forum
You can reply to topics in this forum
You cannot edit your posts in this forum
You cannot delete your posts in this forum
You cannot vote in polls in this forum
You cannot attach files in this forum
You cannot download files in this forum