Космический отстойник / Cosmic Slop (Реджинальд Хадлин / Reginald Hudlin) [1994, США, Фантастика, VHSRip] АО (В. Котов)

Reply to topic
 
Author Message

$Shorox ®

Gender: Male

Longevity: 6 years 9 months

Posts: 1888

Post 03-Mar-2015 03:22

[Quote]

Космический отстойник / Космические неприятности / Cosmic Slop
Страна: США, Hudlin Brothers, The
Жанр: Фантастика, сатира
Год выпуска: 1994
Продолжительность: 01:26:15
Перевод: Авторский (одноголосый) В. Котов
Режиссер: Реджинальд Хадлин / Reginald Hudlin
В ролях: Хорхе Амир, Ларри Андерсон, Ноэль Бальфур, Джейсон Бернард, Артур Бергхардт, Дж. Кеннет Кэмпбелл, Джордж Клинтон, Эдвард Эдвардс, Эфрен Фижюра, Том Финнеган
Описание: Пришельцы предлагают Америке неограниченную энергию, золото, очистку атмосферы и рек взамен на всех жителей, у которых меломина больше 2500 милиграмм на кв. сантиметр кожи. тоесть афроамериканцев.Все бы хорошо, но оказывается, что тогда некому будет служить в армии, делать грязную работу. Да и малоимущие белые, в отсутствие черных, почувствуют себя на самом дне общества. Организовывают референдум... ab
Три корокометражки. Типа негритянского сериала "За гранью возможного"
1. Космические торговцы - рассказ о бартерной сделке пришельцев.
2. Первая заповедь - рассказ о статуи чёрной Девы Марии.
3. Тэнг - рассказ о добродушном негре и его вздорной жене.

Релиз

Качество видео: VHSRip
Формат видео: MKV
Видео: XviD, 1173 кбит/с, 640x480, 29.97 к/с
Аудио 1: Русский АО (В.Котов)(AC3, 1 ch, 192 Кбит/с)
Аудио 2: Английский (MP3, 1 ch, 128 Кбит/с)


Работа над релизом:
Релиз kosmoaelita.
Видеоряд найден на синемагеддоне.
Работа с аудидорожкой sasha20072007
Русский релиз увидел свет благодаря kosmoaelita, $Shorox

Пример русской озвучки:

Дополнительно

================================================
Для Украины: рип и оригинальный ДВД дополнительно залиты в файлохранилище
Для удаления,добавления и извлечения дорожек в mkv используйте бесплатную портативную mkvmerge GUI 7.1.0
Для присоединения потом дорожек к avi воспользуйтесь VirtualDubMod

Знаете ли вы, что...

Отзывы

Рецензия

MediaInfo

Общее
Уникальный идентификатор : 214626403967038172278691712818244754635 (0xA1778AB51594344EA0818C1B0A281CCB)
Полное имя : H:\1111\Cosmic Slop\Cosmic Slop 1994.XviD.VHSRip.Rus.kosmoaelita.mkv
Формат : Matroska
Версия формата : Version 4 / Version 2
Размер файла : 940 Мбайт
Продолжительность : 1 ч. 26 м.
Общий поток : 1523 Кбит/сек
Название фильма : Cosmic Slop / 1994 / Релиз kosmoaelita
Дата кодирования : UTC 2015-03-03 08:37:19
Программа кодирования : mkvmerge v6.6.0 ('The Edge Of The In Between') built on Dec 1 2013 17:55:00
Библиотека кодирования : libebml v1.3.0 + libmatroska v1.4.1
Видео
Идентификатор : 1
Формат : MPEG-4 Visual
Профиль формата : Simple@L3
Параметр BVOP формата : Нет
Параметр QPel формата : Нет
Параметр GMC формата : Без точки перехода
Параметр матрицы формата : Default (H.263)
Идентификатор кодека : V_MS/VFW/FOURCC / XVID
Идентификатор кодека/Подсказка : XviD
Продолжительность : 1 ч. 26 м.
Битрейт : 1173 Кбит/сек
Ширина : 640 пикселей
Высота : 480 пикселей
Соотношение сторон : 4:3
Режим частоты кадров : Постоянный
Частота кадров : 29,970 кадров/сек
Цветовое пространство : YUV
Субдискретизация насыщенности : 4:2:0
Битовая глубина : 8 бит
Тип развёртки : Прогрессивная
Метод сжатия : С потерями
Бит/(Пиксели*Кадры) : 0.127
Размер потока : 724 Мбайт (77%)
Заголовок : kosmoaelita.com
Библиотека кодирования : XviD 1.1.0 Beta2 (UTC 2005-04-04)
Default : Да
Forced : Нет
Аудио #1
Идентификатор : 2
Формат : AC-3
Формат/Информация : Audio Coding 3
Расширение режима : CM (complete main)
Параметр Endianness формата : Big
Идентификатор кодека : A_AC3
Продолжительность : 1 ч. 26 м.
Вид битрейта : Постоянный
Битрейт : 192 Кбит/сек
Каналы : 1 канал
Расположение каналов : Front: C
Частота : 48,0 КГц
Битовая глубина : 16 бит
Метод сжатия : С потерями
Размер потока : 118 Мбайт (13%)
Заголовок : Русский АО (В.Котов для kosmoaelita.com)
Язык : Russian
Default : Да
Forced : Нет
Аудио #2
Идентификатор : 3
Формат : MPEG Audio
Версия формата : Version 1
Профиль формата : Layer 3
Режим : Joint stereo
Идентификатор кодека : A_MPEG/L3
Идентификатор кодека/Подсказка : MP3
Продолжительность : 1 ч. 26 м.
Вид битрейта : Постоянный
Битрейт : 128 Кбит/сек
Каналы : 2 канала
Частота : 48,0 КГц
Метод сжатия : С потерями
Задержка видео : 2 мс.
Размер потока : 79,0 Мбайт (8%)
Язык : English
Default : Нет
Forced : Нет

Скриншоты

Скринлист



Last edited by $Shorox on 2015-03-06 23:48; edited 8 times in total
[Profile] [PM]

admin

Gender: Male

Longevity: 7 years

Posts: 4725

Location: Україна

Post 04-Mar-2015 01:34 (after 22 hours)

[Quote]

Я бы назвал фильм сатирой на отношения белых и черных в США ab
Пришельцы предлагают Америке неограниченную энергию, золото, очистку атмосферы и рек взамен на всех жителей, у которых меломина больше 2500 милиграмм на кв. сантиметр кожи. тоесть афроамериканцев ab
Все бы хорошо, но оказывается, что тогда некому будет служить в армии. делать грязную работу. Да и малоимущие белые, в отсутствие черных. почувствуют себя на самом дне общества ab
Организовывают референдум bj
Котов подошел к этому фильму просто идеально!
Спасибо $Shorox az
[Profile] [PM]

$Shorox ®

Gender: Male

Longevity: 6 years 9 months

Posts: 1888

Post 04-Mar-2015 19:24 (after 17 hours)

[Quote]

admin,
Я его больше двух лет назад начал искать: Поиск фильмов по описанию
Очень понравилось как Котов перевёл. Мне punk and destroy подсказал, чтобы к нему обратиться.
[Profile] [PM]
Display posts:    
Reply to topic

Current time is: 19-Sep 01:13

All times are UTC + 3



You cannot post new topics in this forum
You cannot reply to topics in this forum
You cannot edit your posts in this forum
You cannot delete your posts in this forum
You cannot vote in polls in this forum
You cannot attach files in this forum
You cannot download files in this forum