12 на Луне / 12 to the Moon (Дэвид Брэдли) [1960 г., Фантастика, ужасы, DVDRip-AVC] ЛО (Трамвай-фильм)

Reply to topic
 
Author Message

admin ®

Gender: Male

Longevity: 7 years 2 months

Posts: 4723

Post 20-Sep-2012 04:42

[Quote]

12 на Луне / 12 to the Moon
Год выпуска: 1960
Страна: США, Columbia Pictures Corporation, Luna Productions Inc
Жанр: Фантастика, ужасы
Продолжительность: 01:14:48
Перевод: Любительский (одноголосый) Трамвай-фильм
Режиссер: Дэвид Брэдли
В ролях: Кен Кларк, Миши Коби, Том Конуэй, Энтони Декстер, Джон Венграф, Роберт Монтгомери мл., Филлип Бейрд, Ричард Вебер, Музаффер Тема, Роджер Тиль
Описание: Интернациональная команда космонавтов, состоящая из 12-и учёных и инженеров из США, Швеции, России, Израиля, Германии и Турции, отправляется в экспедицию на Луну на необычайно просторном и комфортабельном космическом корабле "Лунный Орёл 1". После продолжительного полёта и успешной посадки, экипаж приступает к штатному изучению планеты, однако, первая же разведка выявляет наличие на Луне разумной жизни, вовсе не ждавшей непрошенных посетителей.
Качество: DVDRip-AVC
Формат: MKV
Видео: x264, 1538 Кбит/с, 720х468@853x468 crf=21
Аудио 1: Русский (AC3, 2 ch, 192 Кбит/с)
Аудио 2: Английский (AC3, 2 ch, 192 Кбит/с)

Релиз

Рип с DVD5 - sasha20072007, качество crf=21
Озвучка - одноголосый закадровый "Трамвай-фильм"
Сравнение с кинозалом
Сравнение рипа и оригин. ДВД5
Для Украины: рип и оригинальный ДВД дополнительно залиты в файлохранилище
Для удаления и добавления дорожек в mkv используйте бесплатную mkvmerge GUI 5.80

Дополнительно

слоган «starring An International Cast»
Критика по фильму :
Противоперегрузочные раскладушки, живность в клетках и свободно бегающая по кораблю (про перегрузки все как-то и забыли! ), кислород на Луне с земным атмосферным давлением, толпа туристов на Луне (стоят и не знают чем заняться!), sех на Луне! (без этого ну никак нельзя, американцы не поверят иначе!), миномёт (им бы пострелять только!), учёный проверяющий руками: А что у нас здесь такое капает! (ха!-ха!), и т.д и т.п.; - дальше не смотрел даже, да и что смотрел - урывками...

MediaInfo

Общее
Уникальный идентификатор : 174457549035026562308262700764087815949 (0x833F4D40DEDD224ABE96CB076F3D8F0D)
Полное имя : E:\12.na.Lune.1960.x264.DVDRip.(AVC).mkv
Формат : Matroska
Версия формата : Version 2
Размер файла : 1,02 Гбайт
Продолжительность : 1 ч. 14 м.
Общий поток : 1961 Кбит/сек
Название фильма : 12 to the Moon / 1960 / 12 на Луне / by sasha20072007
Дата кодирования : UTC 2012-03-31 16:23:20
Программа кодирования : mkvmerge v5.4.0 ('Piper') built on Mar 18 2012 18:22:43
Библиотека кодирования : libebml v1.2.3 + libmatroska v1.3.0
Видео
Идентификатор : 1
Формат : AVC
Формат/Информация : Advanced Video Codec
Профиль формата : High@L4.1
Параметр CABAC формата : Да
Параметр ReFrames формата : 8 кадров
Идентификатор кодека : V_MPEG4/ISO/AVC
Продолжительность : 1 ч. 14 м.
Битрейт : 1538 Кбит/сек
Ширина : 720 пикселей
Высота : 468 пикселей
Соотношение сторон : 1,85:1
Режим частоты кадров : Постоянный
Частота кадров : 23,976 кадра/сек
Цветовое пространство : YUV
Субдискретизация насыщенности : 4:2:0
Битовая глубина : 8 бит
Тип развёртки : Прогрессивная
Бит/(Пиксели*Кадры) : 0.190
Размер потока : 823 Мбайт (78%)
Библиотека кодирования : x264 core 120 r2164 da19765
Настройки программы : cabac=1 / ref=8 / deblock=1:-3:-3 / analyse=0x3:0x133 / me=umh / subme=11 / psy=1 / psy_rd=0.93:0.06 / mixed_ref=1 / me_range=24 / chroma_me=1 / trellis=2 / 8x8dct=1 / cqm=0 / deadzone=6,6 / fast_pskip=1 / chroma_qp_offset=-3 / threads=12 / sliced_threads=0 / nr=0 / decimate=0 / interlaced=0 / bluray_compat=0 / constrained_intra=0 / bframes=10 / b_pyramid=2 / b_adapt=2 / b_bias=0 / direct=3 / weightb=1 / open_gop=0 / weightp=2 / keyint=220 / keyint_min=22 / scenecut=40 / intra_refresh=0 / rc_lookahead=60 / rc=crf / mbtree=1 / crf=21.0 / qcomp=0.80 / qpmin=0 / qpmax=69 / qpstep=4 / vbv_maxrate=17500 / vbv_bufsize=14000 / crf_max=0.0 / nal_hrd=none / ip_ratio=1.15 / aq=1:0.60
Default : Да
Forced : Нет
Аудио #1
Идентификатор : 2
Формат : AC-3
Формат/Информация : Audio Coding 3
Расширение режима : CM (complete main)
Параметр Endianness формата : Big
Идентификатор кодека : A_AC3
Продолжительность : 1 ч. 14 м.
Вид битрейта : Постоянный
Битрейт : 192 Кбит/сек
Каналы : 2 канала
Расположение каналов : Front: L R
Частота : 48,0 КГц
Битовая глубина : 16 бит
Метод сжатия : С потерями
Размер потока : 103 Мбайт (10%)
Заголовок : Русский (Трамвай-фильм)
Язык : Russian
Default : Да
Forced : Нет
Аудио #2
Идентификатор : 3
Формат : AC-3
Формат/Информация : Audio Coding 3
Расширение режима : CM (complete main)
Параметр Endianness формата : Big
Идентификатор кодека : A_AC3
Продолжительность : 1 ч. 14 м.
Вид битрейта : Постоянный
Битрейт : 192 Кбит/сек
Каналы : 2 канала
Расположение каналов : Front: L R
Частота : 48,0 КГц
Битовая глубина : 16 бит
Метод сжатия : С потерями
Размер потока : 103 Мбайт (10%)
Язык : English
Default : Нет
Forced : Нет
Меню
00:00:00.000 : :Chapter 01
00:10:00.100 : :Chapter 02
00:19:59.901 : :Chapter 03
00:29:59.968 : :Chapter 04
00:40:00.368 : :Chapter 05
00:50:00.269 : :Chapter 06
01:00:00.269 : :Chapter 07
01:10:00.269 : :Chapter 08
01:14:43.003 : :Chapter 09

Скриншоты


cd Рип дополнительно залит на mail.ru cd2
[Profile] [PM]
Quick Reply

Name:

            
Heads necessary to send messages to enable JavaScript
Display posts:    
Reply to topic

Current time is: 17-Nov 21:33

All times are UTC + 3



You cannot post new topics in this forum
You can reply to topics in this forum
You cannot edit your posts in this forum
You cannot delete your posts in this forum
You cannot vote in polls in this forum
You cannot attach files in this forum
You cannot download files in this forum