Экскурсия на Луну / Excursion dans la lune (Сегундо де Шомон / Segundo de Chomón) [1908 г., короткометражка, фантастика, BDRip-AVC]

Reply to topic
 
Author Message

admin ®

Gender: Male

Longevity: 7 years 2 months

Posts: 4721

Post 20-Sep-2012 04:15

[Quote]

Экскурсия на Луну / Excursion dans la lune
Год выпуска: 1908
Страна: Франция
Жанр: короткометражка, фантастика
Продолжительность: 00:06:48
Перевод: Не требуется
Режиссер: Сегундо де Шомон / Segundo de Chomón
В ролях: неизвестно
Описание: ремейк одноименной картины Жоржа Мельеса 1902 года. как большинство ремейков, фильм уступает оригиналу в художественной выразительности, невзирая на использование более изощренных спецэффектов, в частности, технологии трафаретной раскраски патеколор.
Ученый предлагает группе дворян слетать на Луну и демонстрирует им на грифельной доске расчеты такого полёта. Затем он переворачивает доску и на неё появляется движущееся изображение, иллюстрирующее полёт снаряда с Земли на Луну. Участники переходят в мастерскую, где строится снаряд для полёта к Луне. Затем они осматривают гигантскую пушку для запуска этого снаряда. Они входят в снаряд и группа военных загружает снаряд в пушку. После выстрела снаряд подлетает к Луне, которая, заметив его, открывает рот и снаряд влетает прямо в него. Луна выдыхает пламя. Участники экспедиции укладываются спать на поверхности Луны. Начинается снегопад. Путешественники просыпаются, открывают зонтики и спускаются через пещеру под поверхность Луны, где восхищаются желтыми и зелеными огромными грибами и встречают селенитов, одетых как акробаты. Затем их приводят в зал правителя Луны и они наблюдают танцы селениток. Один из землян оказывает знаки внимание танцовщице. Правитель Луны приходит в ярость. Селениты заталкивают путешественников в снаряд и сталкивают с края Луны. Коллеги на Земле наблюдают в подзорные трубы за снарядом, который падает рядом с ними. Из обломков снаряда выбираются путешественники и прилетевшая с ними селенитка.

Качество: BDRip-AVC
Формат: MKV
Видео: x264, 6135 кбит/с, 768x576 crf=18
Аудио: Английский (AC3, 2 ch, 192 Кбит/с)


Релиз

Рип с допа BD25 - sasha20072007
Для Украины: рип и оригинальный ДВД дополнительно залиты в файлохранилище
Для удаления и добавления дорожек в mkv используйте бесплатную mkvmerge GUI 5.80

Дополнительно

Помимо вирирования, многие кадры фильма были раскрашены вручную: например, пламя, выдыхаемое Луной, было желтым. Костюмы путешественников и обитателей Луны были раскрашены в жёлтый, зелёный, красный и синий цвета.
Де Шомон, конечно не первопроходец, но его фильм довольно интересен.
Де Шомон сделал более развитый сюжет, введя еще и романтическую линию: именно романтические отношения, вспыхнувшие между землянином и селениткой, послужили в фильме де Шомона причиной нападения селенитов на экспедицию и изгнания землян с Луны (селенитка бежит со своим возлюбленным на Землю).И еще момент: космический корабль с бежавшими землянами здесь сталкивают с Луны именно селениты.
А вот затем интересное: в отличие от фильма Мельеса, у которого космический корабль просто падает с Луны, у Шомона происходит запуск и последующее отделение второй ступени, приземляется лишь посадочная капсула
Also Known As (AKA)
Excursión a la luna Spain (imdb display title)
Excursion to the Moon USA

MediaInfo

Общее
Уникальный идентификатор : 220034223624757555833340316687724953778 (0xA5890CCD406CD4168E69DE0B193FC0B2)
Полное имя : F:\Excursion dans la Lune 1908.x264.BDRip.sasha20072007.mkv
Формат : Matroska
Версия формата : Version 2
Размер файла : 314 Мбайт
Продолжительность : 6 м. 48 с.
Общий поток : 6456 Кбит/сек
Дата кодирования : UTC 2012-09-18 08:22:26
Программа кодирования : mkvmerge v5.8.0 ('No Sleep / Pillow') built on Sep 2 2012 15:37:04
Библиотека кодирования : libebml v1.2.3 + libmatroska v1.3.0
Видео
Идентификатор : 1
Формат : AVC
Формат/Информация : Advanced Video Codec
Профиль формата : High@L4.1
Параметр CABAC формата : Да
Параметр ReFrames формата : 8 кадров
Идентификатор кодека : V_MPEG4/ISO/AVC
Продолжительность : 6 м. 48 с.
Битрейт : 6135 Кбит/сек
Ширина : 768 пикселей
Высота : 576 пикселей
Соотношение сторон : 4:3
Режим частоты кадров : Постоянный
Частота кадров : 25,000 кадров/сек
Цветовое пространство : YUV
Субдискретизация насыщенности : 4:2:0
Битовая глубина : 8 бит
Тип развёртки : Прогрессивная
Бит/(Пиксели*Кадры) : 0.555
Размер потока : 298 Мбайт (95%)
Библиотека кодирования : x264 core 125 r2208 d9d2288
Настройки программы : cabac=1 / ref=8 / deblock=1:-1:0 / analyse=0x3:0x133 / me=umh / subme=11 / psy=1 / psy_rd=1.00:0.20 / mixed_ref=1 / me_range=24 / chroma_me=1 / trellis=2 / 8x8dct=1 / cqm=0 / deadzone=21,11 / fast_pskip=1 / chroma_qp_offset=-3 / threads=4 / lookahead_threads=1 / sliced_threads=0 / nr=0 / decimate=1 / interlaced=0 / bluray_compat=0 / constrained_intra=0 / bframes=10 / b_pyramid=2 / b_adapt=2 / b_bias=0 / direct=1 / weightb=1 / open_gop=0 / weightp=2 / keyint=220 / keyint_min=22 / scenecut=40 / intra_refresh=0 / rc_lookahead=60 / rc=crf / mbtree=1 / crf=18.0 / qcomp=0.60 / qpmin=0 / qpmax=69 / qpstep=4 / vbv_maxrate=17500 / vbv_bufsize=14000 / crf_max=0.0 / nal_hrd=none / ip_ratio=1.27 / aq=1:1.00
Default : Да
Forced : Нет
Основные цвета : BT.709
Характеристики трансфера : BT.470 System B, BT.470 System G
Коэффициенты матрицы : BT.709
Аудио
Идентификатор : 2
Формат : AC-3
Формат/Информация : Audio Coding 3
Расширение режима : CM (complete main)
Параметр Endianness формата : Big
Идентификатор кодека : A_AC3
Продолжительность : 6 м. 48 с.
Вид битрейта : Постоянный
Битрейт : 192 Кбит/сек
Каналы : 2 канала
Расположение каналов : Front: L R
Частота : 48,0 КГц
Битовая глубина : 16 бит
Метод сжатия : С потерями
Размер потока : 9,34 Мбайт (3%)
Default : Да
Forced : Нет

Скриншоты


[Profile] [PM]
Quick Reply

Name:

            
Heads necessary to send messages to enable JavaScript
Display posts:    
Reply to topic

Current time is: 22-Nov 10:53

All times are UTC + 3



You cannot post new topics in this forum
You can reply to topics in this forum
You cannot edit your posts in this forum
You cannot delete your posts in this forum
You cannot vote in polls in this forum
You cannot attach files in this forum
You cannot download files in this forum