Путешествие на Юпитер / Le voyage sur Jupiter (Сегундо де Шомон / Segundo de Chomón) [1909 г., Фантастика, короткометражка, DVDRip]

Reply to topic
 
Author Message

admin ®

Gender: Male

Longevity: 7 years

Posts: 4725

Location: Україна

Post 20-Sep-2012 00:10

[Quote]

Путешествие на Юпитер / Le voyage sur Jupiter
Год выпуска: 1909
Страна: Франция, Pathé Frères
Жанр: Фантастика, короткометражка
Продолжительность: 00:09:39
Перевод: Не требуется
Режиссер: Сегундо де Шомон / Segundo de Chomón
Описание: Подражая великому Мельесу, Сегундо де Шомон снял в 1909 фантастическую картину. Если у Мельеса ученые отправляются в космическое путешествие в капсюле от снаряда, то герой Шомона поднимается в космос ... по веревочной лестнице. На Юпитере старца не ждал радужный прием, подобно тому, как герои Мельеса сражались с селенитами, наш протагонист вступает в схватку с местными аборигенами. Бой был скоротечен. Потерпев стремительное поражение, ученый за шиворот был выдворен восвояси, в свою кровать, ибо все, что нам предстояло увидеть обернулось красочным сном.
Качество: DVDRip
Формат: AVI
Видео: XviD, 1743 Кбит/с, 640x480
Аудио: Английский (MP3, 2 ch, 120 Кбит/с)


Релиз

Для Украины: рип и оригинальный ДВД дополнительно залиты в файлохранилище
Для удаления и добавления дорожек в mkv используйте бесплатную mkvmerge GUI 5.80

Дополнительно

Also Known As (AKA)
A Trip to Jupiter USA
Reise zum Jupiter Germany
Sueños de un astrónomo Spain (video title)
Une excursion sur Jupiter France (alternative title)
Viaje a Jupiter Spain

MediaInfo

Общее
Полное имя : F:\Le Voyage sur Jupiter.avi
Формат : AVI
Формат/Информация : Audio Video Interleave
Размер файла : 130 Мбайт
Продолжительность : 9 м. 38 с.
Режим общего битрейта : Переменный
Общий поток : 1877 Кбит/сек
Программа кодирования : VirtualDubMod 1.5.10.2 (build 2540/release)
Библиотека кодирования : VirtualDub build 32842/release
Видео
Идентификатор : 0
Формат : MPEG-4 Visual
Профиль формата : Advanced Simple@L5
Параметр BVOP формата : 2
Параметр QPel формата : Нет
Параметр GMC формата : Без точки перехода
Параметр матрицы формата : Default (H.263)
Режим смешивания : Сжатый битовый поток
Идентификатор кодека : XVID
Идентификатор кодека/Подсказка : XviD
Продолжительность : 9 м. 38 с.
Битрейт : 1744 Кбит/сек
Ширина : 640 пикселей
Высота : 480 пикселей
Соотношение сторон : 4:3
Частота кадров : 25,000 кадров/сек
Цветовое пространство : YUV
Субдискретизация насыщенности : 4:2:0
Битовая глубина : 8 бит
Тип развёртки : Прогрессивная
Метод сжатия : С потерями
Бит/(Пиксели*Кадры) : 0.227
Размер потока : 120 Мбайт (93%)
Библиотека кодирования : XviD 64
Аудио
Идентификатор : 1
Формат : MPEG Audio
Версия формата : Version 1
Профиль формата : Layer 3
Режим : Joint stereo
Идентификатор кодека : 55
Идентификатор кодека/Подсказка : MP3
Продолжительность : 9 м. 38 с.
Вид битрейта : Переменный
Битрейт : 121 Кбит/сек
Номинальный битрейт : 128 Кбит/сек
Каналы : 2 канала
Частота : 48,0 КГц
Метод сжатия : С потерями
Размер потока : 8,34 Мбайт (6%)
Выравнивание : Соединение по промежуткам
Продолжительность промежутка : 24 мс. (0,60 видеокадр)
Время предзагрузки промежутка : 546 мс.
Библиотека кодирования : LAME3.90.
Настройки программы : -m j -V 4 -q 2 -lowpass 17.6 --abr 128

Скриншоты



cd Рип дополнительно залит на ОБЛАКО cd2
[Profile] [PM]
Quick Reply

Name:

            
Heads necessary to send messages to enable JavaScript
Display posts:    
Reply to topic

Current time is: 22-Sep 09:07

All times are UTC + 3



You cannot post new topics in this forum
You can reply to topics in this forum
You cannot edit your posts in this forum
You cannot delete your posts in this forum
You cannot vote in polls in this forum
You cannot attach files in this forum
You cannot download files in this forum