Затмение солнца при полной Луне / L'éclipse du soleil en pleine lune / The Eclipse or The Courtship of the Sun and the Moon (Жорж Мельес / Georges Melies) [1907 г., коротком., фэнтези, мелодрама, BDRip (AVC)]

Ответить на тему
 
Автор Сообщение

admin ®

Пол: Мужской

Стаж: 5 лет 8 месяцев

Сообщений: 4740

Откуда: Україна

Создавать темы 19-Сен-2012 04:24

[Цитировать]

Затмение солнца при полной Луне / L'éclipse du soleil en pleine lune / The Eclipse or The Courtship of the Sun and the Moon
Год выпуска: 1907
Страна: Франция
Жанр: короткометражка, фэнтези, мелодрама
Продолжительность: 00:09:16
Перевод: Не требуется
Режиссер: Жорж Мельес / Georges Melies
Описание: Из жизни астрономов
Качество: BDRip (AVC)
Формат: MKV
Видео: x264, 4181 кбит/с, 752x576 crf=18
Аудио: Английский (AC3, 2 ch, 192 Кбит/с)


Релиз

Фильм шел бонусом к диску "Путешествие на Луну"
Для Украины: рип и оригинальный ДВД дополнительно залиты в файлохранилище
Для удаления и добавления дорожек в mkv используйте бесплатную mkvmerge GUI 5.80

Дополнительно

MediaInfo

Общее
Уникальный идентификатор : 232092048135835627732755862168101482708 (0xAE9B4D72FE174CA68867E72C7BA870D4)
Полное имя : F:\Eclipse de soleil en pleine lune 1907.x264.BDRip.mkv
Формат : Matroska
Версия формата : Version 2
Размер файла : 296 Мбайт
Продолжительность : 9 м. 16 с.
Общий поток : 4462 Кбит/сек
Дата кодирования : UTC 2012-09-18 07:32:45
Программа кодирования : mkvmerge v5.8.0 ('No Sleep / Pillow') built on Sep 2 2012 15:37:04
Библиотека кодирования : libebml v1.2.3 + libmatroska v1.3.0
Видео
Идентификатор : 1
Формат : AVC
Формат/Информация : Advanced Video Codec
Профиль формата : High@L4.1
Параметр CABAC формата : Да
Параметр ReFrames формата : 8 кадров
Идентификатор кодека : V_MPEG4/ISO/AVC
Продолжительность : 9 м. 16 с.
Битрейт : 4181 Кбит/сек
Ширина : 752 пикселя
Высота : 576 пикселей
Соотношение сторон : 4:3
Режим частоты кадров : Постоянный
Частота кадров : 25,000 кадров/сек
Цветовое пространство : YUV
Субдискретизация насыщенности : 4:2:0
Битовая глубина : 8 бит
Тип развёртки : Прогрессивная
Бит/(Пиксели*Кадры) : 0.386
Размер потока : 277 Мбайт (94%)
Библиотека кодирования : x264 core 125 r2208 d9d2288
Настройки программы : cabac=1 / ref=8 / deblock=1:-2:-1 / analyse=0x3:0x133 / me=umh / subme=11 / psy=1 / psy_rd=1.00:0.20 / mixed_ref=1 / me_range=24 / chroma_me=1 / trellis=2 / 8x8dct=1 / cqm=0 / deadzone=21,11 / fast_pskip=1 / chroma_qp_offset=-3 / threads=4 / lookahead_threads=1 / sliced_threads=0 / nr=0 / decimate=1 / interlaced=0 / bluray_compat=0 / constrained_intra=0 / bframes=8 / b_pyramid=2 / b_adapt=2 / b_bias=0 / direct=1 / weightb=1 / open_gop=0 / weightp=2 / keyint=220 / keyint_min=22 / scenecut=40 / intra_refresh=0 / rc_lookahead=60 / rc=crf / mbtree=1 / crf=18.0 / qcomp=0.60 / qpmin=0 / qpmax=69 / qpstep=4 / vbv_maxrate=17500 / vbv_bufsize=14000 / crf_max=0.0 / nal_hrd=none / ip_ratio=1.27 / aq=1:1.00
Default : Да
Forced : Нет
Основные цвета : BT.709
Характеристики трансфера : BT.470 System B, BT.470 System G
Коэффициенты матрицы : BT.709
Аудио
Идентификатор : 2
Формат : AC-3
Формат/Информация : Audio Coding 3
Расширение режима : CM (complete main)
Параметр Endianness формата : Big
Идентификатор кодека : A_AC3
Продолжительность : 9 м. 16 с.
Вид битрейта : Постоянный
Битрейт : 192 Кбит/сек
Каналы : 2 канала
Расположение каналов : Front: L R
Частота : 48,0 КГц
Битовая глубина : 16 бит
Метод сжатия : С потерями
Размер потока : 12,7 Мбайт (4%)
Default : Да
Forced : Нет

Скриншоты


[Профиль] [ЛС]
Быстрый ответ

Имя:

            
Для отправки сообщений необходимо включить JavaScript
Показать сообщения:    
Ответить на тему

Текущее время: 24-Май 21:27

Часовой пояс: UTC + 3:30



Вы не можете начинать темы
Вы можете отвечать на сообщения
Вы не можете редактировать свои сообщения
Вы не можете удалять свои сообщения
Вы не можете голосовать в опросах
Вы не можете прикреплять файлы к сообщениям
Вы не можете скачивать файлы